Ant-Man and the Wasp (2018) BluRay 720p x264 Multi Original Audio [Hindi + Eng + Tamil + Telugu] ESub – TMV

Poster

iMDB

Imdb Picture Title: Ant-Man and the Wasp
Year: 2018
Runtime: 118 minutes
Votes: 7296
Rating: 7.8/10
Language: English
Country: USA
All Genres: Action, Adventure, Sci-Fi
Plot Outline: In the aftermath of ‘Captain America: Civil War,’ Scott Lang grapples with the consequences of his choices as both a Super Hero and a father. As he struggles to re-balance his home life with his responsibilities as Ant-Man, he’s confronted by Hope van Dyne and Dr. Hank Pym with an urgent new mission. Scott must once again put on the suit and learn to fight alongside The Wasp as the team works together to uncover secrets from their past. Written by Walt Disney Studios
Tagline: Real heroes. Not actual size.
Director: Peyton Reed
Writing By: Chris McKenna,Erik Sommers,Paul Rudd,Andrew Barrer,Gabriel Ferrari,
Produced By: Victoria Alonso,Mitchell Bell,Stephen Broussard,Louis D’Esposito,Kevin Feige,Stan Lee,Charles Newirth,Laura Stoltz,Lars P. Winther,Kevin R. Wright,
Music: Christophe Beck
Cast:
Paul Rudd as Scott Lang / Ant-Man
Evangeline Lilly as Hope Van Dyne / Wasp
Michael Peña as Luis
Walton Goggins as Sonny Burch
Bobby Cannavale as Paxton
Judy Greer as Maggie
T.I. as Dave
David Dastmalchian as Kurt
Hannah John-Kamen as Ava / Ghost
Abby Ryder Fortson as Cassie
Trailers:
“Fun” TV Spot
Official Trailer
Teaser Trailer

Details

Name: Ant-Man and the Wasp (2018) BluRay 720p x264 Multi Original Audio [Hindi + Eng +Tamil +Telugu] …
Description:

Ant-Man and the Wasp (2018) BluRay 720p x264 Multi Original Audio [Hindi + Eng +Tamil +Telugu] ESub – TMV


 

Format                                   : Matroska
Format version                           : Version 4 / Version 2
File size                                : 1.09 GiB
Duration                                 : 1 h 58 min
Overall bit rate mode                    : Variable
Overall bit rate                         : 1 324 kb/s

Video
ID                                       : 1
Format                                   : AVC
Format/Info                              : Advanced Video Codec
Format profile                           : [email protected]
Format settings                          : CABAC / 4 Ref Frames
Format settings, CABAC                   : Yes
Format settings, ReFrames                : 4 frames
Codec ID                                 : V_MPEG4/ISO/AVC
Duration                                 : 1 h 58 min
Bit rate                                 : 846 kb/s
Width                                    : 1 280 pixels
Height                                   : 536 pixels
Display aspect ratio                     : 2.40:1
Frame rate mode                          : Constant
Frame rate                               : 23.976 (24000/1001) FPS
Color space                              : YUV
Chroma subsampling                       : 4:2:0
Bit depth                                : 8 bits
Scan type                                : Progressive
Bits/(Pixel*Frame)                       : 0.051
Stream size                              : 715 MiB (64%)
Writing library                          : x264 core 155 r2901 7d0ff22
Language                                 : English
Default                                  : Yes
Forced                                   : No

Audio #1
ID                                       : 2
Format                                   : MPEG Audio
Format version                           : Version 1
Format profile                           : Layer 3
Format settings                          : Joint stereo / MS Stereo
Codec ID                                 : A_MPEG/L3
Codec ID/Hint                            : MP3
Duration                                 : 1 h 58 min
Bit rate mode                            : Variable
Bit rate                                 : 128 kb/s
Channel(s)                               : 2 channels
Sampling rate                            : 44.1 kHz
Frame rate                               : 38.281 FPS (1152 SPF)
Compression mode                         : Lossy
Stream size                              : 110 MiB (10%)
Writing library                          : LAME3.99r
Encoding settings                        : -m j -V 4 -q 3 -lowpass 17 –abr 128
Language                                 : Telugu
Default                                  : Yes
Forced                                   : No

Audio #2
ID                                       : 3
Format                                   : MPEG Audio
Format version                           : Version 1
Format profile                           : Layer 3
Format settings                          : Joint stereo / MS Stereo
Codec ID                                 : A_MPEG/L3
Codec ID/Hint                            : MP3
Duration                                 : 1 h 58 min
Bit rate mode                            : Variable
Bit rate                                 : 128 kb/s
Channel(s)                               : 2 channels
Sampling rate                            : 44.1 kHz
Frame rate                               : 38.281 FPS (1152 SPF)
Compression mode                         : Lossy
Stream size                              : 110 MiB (10%)
Writing library                          : LAME3.99r
Encoding settings                        : -m j -V 4 -q 3 -lowpass 17 –abr 128
Language                                 : Tamil
Default                                  : No
Forced                                   : No

Audio #3
ID                                       : 4
Format                                   : MPEG Audio
Format version                           : Version 1
Format profile                           : Layer 3
Format settings                          : Joint stereo / MS Stereo
Codec ID                                 : A_MPEG/L3
Codec ID/Hint                            : MP3
Duration                                 : 1 h 58 min
Bit rate mode                            : Variable
Bit rate                                 : 128 kb/s
Channel(s)                               : 2 channels
Sampling rate                            : 44.1 kHz
Frame rate                               : 38.281 FPS (1152 SPF)
Compression mode                         : Lossy
Stream size                              : 110 MiB (10%)
Writing library                          : LAME3.99r
Encoding settings                        : -m j -V 4 -q 3 -lowpass 17 –abr 128
Language                                 : Hindi
Default                                  : No
Forced                                   : No

Audio #4
ID                                       : 5
Format                                   : MPEG Audio
Format version                           : Version 1
Format profile                           : Layer 3
Format settings                          : Joint stereo / MS Stereo
Codec ID                                 : A_MPEG/L3
Codec ID/Hint                            : MP3
Duration                                 : 1 h 58 min
Bit rate mode                            : Variable
Bit rate                                 : 83.2 kb/s
Nominal bit rate                         : 96.0 kb/s
Channel(s)                               : 2 channels
Sampling rate                            : 44.1 kHz
Frame rate                               : 38.281 FPS (1152 SPF)
Compression mode                         : Lossy
Stream size                              : 70.3 MiB (6%)
Writing library                          : LAME3.99r
Encoding settings                        : -m j -V 4 -q 3 -lowpass 15.1 –abr 96
Language                                 : English
Default                                  : No
Forced                                   : No

Text
ID                                       : 6
Format                                   : UTF-8
Codec ID                                 : S_TEXT/UTF8
Codec ID/Info                            : UTF-8 Plain Text
Duration                                 : 1 h 57 min
Bit rate                                 : 67 b/s
Count of elements                        : 2132
Stream size                              : 57.8 KiB (0%)
Language                                 : English
Default                                  : Yes
Forced                                   : No

         

Category: Movies > Hollywood Dub
Lang: Hindi
Total Size: 1.09 GB

|| Download This Movie Via Single Resumable Links Size: 1.09 GB ||

Direct-1 Google Drive | Direct-2 | Direct-3 |

Watch Online Click Here