Bad Boys (1995) BluRay 720p x264 [Dual Audio] [English 5.1 + Hindi 5.1] Esubs [PKG]

Poster

iMDB

Imdb Picture Title: Bad Boys
Year: 1995
Runtime: 119 minutes
Votes: 190517
Rating: 6.8/10
Language: English
Country: USA
All Genres: Action, Comedy, Crime, Drama, Thriller
Plot Outline: Two hip detectives protect a witness to a murder while investigating a case of stolen heroin from the evidence storage room from their police precinct.
Tagline: Whatcha gonna do?
Director: Michael Bay
Writing By: George Gallo,Michael Barrie,Jim Mulholland,Doug Richardson,
Produced By: Jerry Bruckheimer,Lucas Foster,Bruce S. Pustin,Don Simpson,
Music: Mark Mancina
Cast:
Lisa Boyle as Girl Decoy
Will Smith as Mike Lowrey
Martin Lawrence as Marcus Burnett
Michael Taliferro as Carjacker
Emmanuel Xuereb as Eddie Dominguez
Tchéky Karyo as Fouchet
Marc Macaulay as Noah Trafficante
Ralph Gonzalez as Kuni
Vic Manni as Ferguson
Frank John Hughes as Casper
Trailers:
Bad Boys

Details

Name: Bad Boys (1995) 720p Blu-Ray x264 [Dual-Audio] [English 5.1 + Hindi 5.1] Esubs [PKG]
Description:

Bad Boys (1995) 720p Blu-Ray x264 [Dual-Audio] [English 5.1 + Hindi 5.1] Esubs [PKG]

 

 

Complete name :Bad Boys (1995) 720p Blu-Ray x264 [Dual-Audio] [English 5.1 + Hindi 5.1] Esubs [PKG].mkv
Format : Matroska
Format version : Version 4 / Version 2
File size : 1.15 GiB
Duration : 1h 58mn
Overall bit rate : 1 385 Kbps
Movie name : Bad Boys (1995) 720p Blu-Ray x264 [Dual-Audio] [English 5.1 + Hindi 5.1] Esubs [PKG]
Encoded date : UTC 2015-07-20 17:51:13
Writing application : mkvmerge v7.7.0 (‘Six Voices’) 64bit built on Feb 28 2015 23:39:33
Writing library : libebml v1.3.1 + libmatroska v1.4.2
NUMBER_OF_FRAMES : 1616
NUMBER_OF_BYTES : 61387

Video
ID : 1
Format : AVC
Format/Info : Advanced Video Codec
Format profile : [email protected]
Format settings, CABAC : Yes
Format settings, ReFrames : 4 frames
Codec ID : V_MPEG4/ISO/AVC
Duration : 1h 58mn
Bit rate : 935 Kbps
Width : 1 280 pixels
Height : 692 pixels
Display aspect ratio : 1.85:1
Frame rate mode : Constant
Frame rate : 23.976 fps
Color space : YUV
Chroma subsampling : 4:2:0
Bit depth : 8 bits
Scan type : Progressive
Bits/(Pixel*Frame) : 0.044
Stream size : 773 MiB (66%)
Title : [PKG]
Writing library : x264 core 125 r2208 d9d2288
Encoding settings : cabac=1 / ref=3 / deblock=1:-1:-1 / analyse=0x3:0x113 / me=umh / subme=9 / psy=1 / psy_rd=0.00:0.00 / mixed_ref=1 / me_range=32 / chroma_me=1 / trellis=2 / 8x8dct=1 / cqm=0 / deadzone=21,11 / fast_pskip=0 / chroma_qp_offset=0 / threads=12 / lookahead_threads=2 / sliced_threads=0 / nr=0 / decimate=1 / interlaced=0 / bluray_compat=0 / constrained_intra=0 / bframes=3 / b_pyramid=2 / b_adapt=2 / b_bias=0 / direct=3 / weightb=1 / open_gop=0 / weightp=2 / keyint=250 / keyint_min=25 / scenecut=40 / intra_refresh=0 / rc_lookahead=60 / rc=2pass / mbtree=1 / bitrate=935 / ratetol=1.0 / qcomp=0.60 / qpmin=10 / qpmax=51 / qpstep=4 / cplxblur=20.0 / qblur=0.5 / ip_ratio=1.40 / aq=1:1.00
Default : Yes
Forced : No

Audio #1
ID : 2
Format : AC-3
Format/Info : Audio Coding 3
Mode extension : CM (complete main)
Format settings, Endianness : Big
Codec ID : A_AC3
Duration : 1h 58mn
Bit rate mode : Constant
Bit rate : 224 Kbps
Channel(s) : 6 channels
Channel positions : Front: L C R, Side: L R, LFE
Sampling rate : 48.0 KHz
Bit depth : 16 bits
Compression mode : Lossy
Stream size : 190 MiB (16%)
Title : [PKG]
Language : Hindi
Default : Yes
Forced : Yes

Audio #2
ID : 3
Format : AC-3
Format/Info : Audio Coding 3
Mode extension : CM (complete main)
Format settings, Endianness : Big
Codec ID : A_AC3
Duration : 1h 58mn
Bit rate mode : Constant
Bit rate : 224 Kbps
Channel(s) : 6 channels
Channel positions : Front: L C R, Side: L R, LFE
Sampling rate : 48.0 KHz
Bit depth : 16 bits
Compression mode : Lossy
Stream size : 190 MiB (16%)
Title : [PKG]
Language : English
Default : No
Forced : No

Text
ID : 4
Format : UTF-8
Codec ID : S_TEXT/UTF8
Codec ID/Info : UTF-8 Plain Text
Title : [PKG]
Language : English
Default : Yes
Forced : Yes

Menu
00:00:00.000 : en:00:00:00.000
00:06:37.105 : en:00:06:37.105
00:15:29.303 : en:00:15:29.303
00:20:50.874 : en:00:20:50.874
00:29:11.416 : en:00:29:11.416
00:35:19.992 : en:00:35:19.992
00:42:19.787 : en:00:42:19.787
00:50:59.056 : en:00:50:59.056
00:59:15.718 : en:00:59:15.718
01:04:30.867 : en:01:04:30.867
01:13:50.801 : en:01:13:50.801
01:19:42.486 : en:01:19:42.486
01:27:59.524 : en:01:27:59.524
01:33:25.725 : en:01:33:25.725
01:41:20.616 : en:01:41:20.616
01:48:48.688 : en:01:48:48.688

SAMPLE WITHIN TORRENT

 

               

Category: Movies > Hollywood Dub
Lang: Hindi
Total Size: 1.15 GB
Sample
:download:

|| Download This Movie Via Single Resumable Links Size: 1.15 GB ||

Direct-1 Google Drive | Direct-2 | Direct-3 |

Watch Online Click Here