Coco (2017) BRRip 720p x264 Dual Audio [Hindi 6ch + Eng 2ch] AAC Esub ~Katyayan~

Poster

iMDB

Imdb Picture Title: Coco
Year: 2017
Runtime: 109 minutes
Votes: 14217
Rating: 9.0/10
Language: English, Spanish
Country: USA
All Genres: Animation, Adventure, Comedy, Family, Fantasy, Musical, Mystery
Plot Outline: Aspiring musician Miguel, confronted with his family’s ancestral ban on music, enters the Land of the Dead to work out the mystery.
Director: Lee Unkrich
Adrian Molina
Writing By: Lee Unkrich,Jason Katz,Matthew Aldrich,Adrian Molina,Adrian Molina,Matthew Aldrich,
Produced By: Darla K. Anderson,Mary Alice Drumm,John Lasseter,
Music: Michael Giacchino
Cast:
Anthony Gonzalez as Miguel
Gael García Bernal as Héctor
Benjamin Bratt as Ernesto de la Cruz
Alanna Ubach as Mamá Imelda
Renee Victor as Abuelita
Jaime Camil as Papá
Alfonso Arau as Papá Julio
Herbert Siguenza as Tío Oscar / Tío Felipe
Gabriel Iglesias as Clerk
Lombardo Boyar as Plaza Mariachi / Gustavo
Trailers:
Official U.S. Trailer
“Find Your Voice”
Theatrical Trailer
Teaser Trailer

Watch-Free-HD     Download

Details

Name: Coco (2017) BRRip 720p x264 Dual Audio [Hindi 6ch + Eng 2ch] AAC Esub ~Katyayan~
Description:

Coco (2017) BRRip 720p x264 Dual Audio [Hindi 6ch + Eng 2ch] AAC Esub ~Katyayan~

 

Thanks To Mr. Rohit And Mr. Ranvijay For Hindi Audio

—=General=—-

Format                                   : Matroska
Format version                           : Version 4 / Version 2
File size                                : 829 MiB
Duration                                 : 1 h 45 min
Overall bit rate                         : 1 104 kb/s
Movie name                               : Coco (2017) BRRip 720p x264 Dual Audio [Hindi 6ch + Eng 2ch] AAC Esub ~Katyayan~

—=Video=—

ID                                       : 1
Format                                   : AVC
Format/Info                              : Advanced Video Codec
Format profile                           : [email protected]
Format settings, CABAC                   : Yes
Format settings, ReFrames                : 4 frames
Codec ID                                 : V_MPEG4/ISO/AVC
Duration                                 : 1 h 45 min
Bit rate                                 : 863 kb/s
Width                                    : 1 280 pixels
Height                                   : 536 pixels
Display aspect ratio                     : 2.40:1
Frame rate mode                          : Constant
Frame rate                               : 23.976 (24000/1001) FPS
Color space                              : YUV
Chroma subsampling                       : 4:2:0
Bit depth                                : 8 bits
Scan type                                : Progressive
Bits/(Pixel*Frame)                       : 0.052
Stream size                              : 648 MiB (78%)
Title                                    : Coco (2017) BRRip 720p x264 Dual Audio [Hindi 6ch + Eng 2ch] AAC Esub ~Katyayan~
Writing library                          : x264 core 152 r2851 ba24899
Language                                 : English
Default                                  : Yes
Forced                                   : No

—=Audio #1=—

ID                                       : 2
Format                                   : AAC
Format/Info                              : Advanced Audio Codec
Format profile                           : HE-AAC / LC
Codec ID                                 : A_AAC
Duration                                 : 1 h 45 min
Bit rate                                 : 64.0 kb/s
Channel(s)                               : 2 channels
Channel positions                        : Front: L R
Sampling rate                            : 48.0 kHz / 24.0 kHz
Frame rate                               : 23.438 FPS (1024 spf)
Compression mode                         : Lossy
Delay relative to video                  : 31 ms
Stream size                              : 48.1 MiB (6%)
Title                                    : ~Katyayan~
Language                                 : English
Default                                  : No
Forced                                   : No

—=Audio #2=—

ID                                       : 4
Format                                   : AAC
Format/Info                              : Advanced Audio Codec
Format profile                           : LC
Codec ID                                 : A_AAC
Duration                                 : 1 h 45 min
Bit rate                                 : 174 kb/s
Channel(s)                               : 6 channels
Channel positions                        : Front: L C R, Side: L R, LFE
Sampling rate                            : 44.1 kHz
Frame rate                               : 43.066 FPS (1024 spf)
Compression mode                         : Lossy
Stream size                              : 131 MiB (16%)
Title                                    : ~Katyayan~
Language                                 : Hindi
Default                                  : Yes
Forced                                   : Yes

—=Text=—

ID                                       : 3
Format                                   : UTF-8
Codec ID                                 : S_TEXT/UTF8
Codec ID/Info                            : UTF-8 Plain Text
Duration                                 : 1 h 35 min
Bit rate                                 : 71 b/s
Count of elements                        : 1164
Stream size                              : 49.9 KiB (0%)
Title                                    : ~Katyayan~
Language                                 : English
Default                                  : Yes
Forced                                   : Yes

 

Category: Movies > Hollywood Dub
Lang: Hindi
Total Size: 833.22 MB
:download:

|| Download This Movie Via Single Resumable Links Size: 829 MB ||

Direct-1 Google Drive | Direct-2 | Direct-3 |

Watch Online Click Here