Foxcatcher (2014) BluRay 720p Dual Audio [English-Hindi] GOPISAHI

Poster

iMDB

Imdb Picture Title: Foxcatcher
Year: 2014
Runtime: 134 minutes
Votes: 119604
Rating: 7.0/10
Language: English, French
Country: USA
All Genres: Biography, Drama, Sport
Plot Outline: U.S. Olympic wrestling champions and brothers Mark Schultz and Dave Schultz join “Team Foxcatcher”, led by eccentric multi-millionaire John du Pont, as they train for the 1988 Olympic Games in Seoul, South Korea, but John’s self-destructive behavior threatens to consume them all.
Tagline: Ambition. Power. Control.
Director: Bennett Miller
Writing By: E. Max Frye,Dan Futterman,
Produced By: Mark Bakshi,Chelsea Barnard,Hank Bedford,Anthony Bregman,Michael Coleman,Megan Ellison,John P. Giura,Kristin Gore,Tom Heller,Jon Kilik,Bennett Miller,Scott Robertson,Ron Schmidt,Mark Schultz,
Music: Rob Simonsen
Cast:
Steve Carell as John du Pont
Channing Tatum as Mark Schultz
Mark Ruffalo as David Schultz
Sienna Miller as Nancy Schultz
Vanessa Redgrave as Jean du Pont
Anthony Michael Hall as Jack
Guy Boyd as Henry Beck
Brett Rice as Fred Cole
Jackson Frazer as Alexander Schultz
Samara Lee as Danielle Schultz
Trailers:
UK TV Spot
Theatrical Trailer
Teaser Trailer
Teaser Trailer #2
Teaser Trailer
Details

Name: Foxcatcher 2014 720p Esub BluRay Dual Audio English Hindi GOPISAHI
Description:


Format                         : Matroska
Format version                 : Version 4 / Version 2
File size                      : 731 MiB
Duration                       : 2 h 14 min
Overall bit rate               : 760 kb/s
Movie name                     : Foxcatcher 2014 GOPISAHI

Video
Format                         : AVC
Codec ID                       : V_MPEG4/ISO/AVC
Duration                       : 2 h 14 min
Bit rate                       : 600 kb/s
Width                          : 1 280 pixels
Height                         : 688 pixels
Display aspect ratio           : 1.85:1
Frame rate mode                : Constant
Frame rate                     : 23.976 (24000/1001) FPS
Stream size                    : 577 MiB (79%)
Writing library                : x264 core 155 r2893 b00bcaf

Audio #1
Format                         : AAC
Duration                       : 2 h 14 min
Bit rate                       : 78.2 kb/s
Channel(s)                     : 6 channels
Channel positions              : Front: L C R, Side: L R, LFE
Sampling rate                  : 44.1 kHz
Frame rate                     : 43.066 FPS (1024 SPF)
Compression mode               : Lossy
Stream size                    : 75.2 MiB (10%)
Language                       : English

Audio #2
Format                         : AAC
Duration                       : 2 h 14 min
Bit rate                       : 79.2 kb/s
Channel(s)                     : 6 channels
Channel positions              : Front: L C R, Side: L R, LFE
Sampling rate                  : 44.1 kHz
Frame rate                     : 43.066 FPS (1024 SPF)
Compression mode               : Lossy
Stream size                    : 76.1 MiB (10%)
Title                          : GOPISAHI
Language                       : Hindi

Text
Language                       : English


Category: Movies > Hollywood Dub
Lang: Hindi
Total Size: 730.82 MB
:download:

|| Download This Movie Via Single Resumable Links Size: 731 MB ||

Direct-1 Google Drive | Direct-2 | Direct-3 |

Watch Online Click Here