Fukrey Returns (2017) Hindi 720p HDTV Rip x264 AAC-DTOne

Poster

iMDB

Imdb Picture Title: Fukrey Returns
Year: 2017
Runtime: 141 minutes
Votes: 83
Rating: 8.3/10
Language: Hindi
Country: India
All Genres: Comedy, Drama, Romance
Plot Outline: Mayhem continues in the sequel to Fukrey (2013).
Director: Mrighdeep Lamba
Writing By: Vipul Vig,Vipul Vig,Mrighdeep Lamba,
Produced By: Farhan Akhtar,Vikesh Bhutani,Stuti Ramachandra,Ritesh Sidhwani,
Music: Sameer Uddin
Cast:
Pulkit Samrat as Hunny
Manjot Singh as Lali
Ali Fazal as Zafar
Varun Sharma as Choocha
Priya Anand as Priya
Vishakha Singh as Neetu Singh
Pankaj Tripathi as Pandit
Richa Chadha as Bholi Punjaban
Vijay Kumar Dogra as Bank Executive
Ajaz Khan as

Details

Name: Fukrey Returns (2017) Hindi 720p HDTV Rip x264 AAC-DTOne
Description:

Fukrey Returns (2017) 720p HDTV Rip – DTOne
General
Complete name                            : Fukrey Returns (2017) 720p HDTV Rip – DTOne.mp4
Format                                   : MPEG-4
Format profile                           : Base Media
Codec ID                                 : isom (isom/iso2/avc1/mp41)
File size                                : 1.66 GiB
Duration                                 : 2 h 15 min
Overall bit rate mode                    : Variable
Overall bit rate                         : 1 748 kb/s
Writing application                      : Lavf57.82.101

Video
ID                                       : 1
Format                                   : AVC
Format/Info                              : Advanced Video Codec
Format profile                           : [email protected]
Format settings                          : 1 Ref Frames
Format settings, CABAC                   : No
Format settings, RefFrames               : 1 frame
Format settings, GOP                     : M=1, N=60
Codec ID                                 : avc1
Codec ID/Info                            : Advanced Video Coding
Duration                                 : 2 h 15 min
Bit rate                                 : 1 680 kb/s
Width                                    : 1 280 pixels
Height                                   : 720 pixels
Display aspect ratio                     : 16:9
Frame rate mode                          : Variable
Frame rate                               : 25.000 FPS
Minimum frame rate                       : 24.691 FPS
Maximum frame rate                       : 25.316 FPS
Color space                              : YUV
Chroma subsampling                       : 4:2:0
Bit depth                                : 8 bits
Scan type                                : Progressive
Bits/(Pixel*Frame)                       : 0.073
Stream size                              : 1.59 GiB (96%)

Audio
ID                                       : 2
Format                                   : AAC
Format/Info                              : Advanced Audio Codec
Format profile                           : LC
Codec ID                                 : mp4a-40-2
Duration                                 : 2 h 15 min
Bit rate mode                            : Variable
Bit rate                                 : 64.0 kb/s
Maximum bit rate                         : 66.8 kb/s
Channel(s)                               : 2 channels
Channel positions                        : Front: L R
Sampling rate                            : 48.0 kHz
Frame rate                               : 46.875 FPS (1024 SPF)
Compression mode                         : Lossy
Stream size                              : 62.2 MiB (4%)
Default                                  : Yes
Alternate group                          : 1




Category: Movies > Bollywood
Lang: Hindi
Total Size: 1.66 GB
:download:

|| Download This Movie Via Single Resumable Links Size: 1.66 GB ||

Direct-1 Google Drive | Direct-2 | Direct-3 |

Watch Online Click Here