Goemon (2009) BluRay 720p x264 [Dual Audio] [Japanese 5.1 + Hindi 2.0] – Mafiaking – TeamTNT

Poster

iMDB

Imdb Picture Original Title: Goemon
Title: Goemon, the Freedom Fighter
Year: 2009
Runtime: 128 minutes
Votes: 4685
Rating: 6.7/10
Language: Japanese
Country: Japan
All Genres: Action, Drama, History
Plot Outline: Based on a Japanese folk legend that echoes the tale of Robin Hood, this ninja thriller follows the exploits of Goemon Ishikawa (Yôsuke Eguchi), who leaves his fighting clan after its chief…
Director: Kazuaki Kiriya
Writing By: Kazuaki Kiriya,Kazuaki Kiriya,Tetsurô Takita,
Produced By: Takashige Ichise,Kazuaki Kiriya,Yoshiya Nagasawa,Yushi Ueda,Yushi Ueda,Yushi Ueda,
Music: Akihiko Matsumoto
Cast:
Yôsuke Eguchi as Goemon Ishikawa
Takao Ohsawa as Saizo Kirigakure
Ryôko Hirosue as Chacha Asai
Jun Kaname as Mitsunari Ishida
Gori as Sasuke Sarutobi
Mikijirô Hira as Rikyu Sen
Masatô Ibu as Ieyasu Tokugawa
Tetsuji Tamayama as Matahachi
Hashinosuke Nakamura as Nobunaga Oda
Eiji Okuda as Hideyoshi Toyotomi
Trailers:
Goemon

Details

Name: Goemon (2009) BluRay 720p x264 [Dual-Audio][Japanese 5.1 + Hindi 2.0] – Mafiaking – TeamTNT
Description:

Goemon (2009) BluRay 720p x264 [Dual-Audio][Japanese 5.1 + Hindi 2.0] – Mafiaking – TeamTNT

 

GENRE: Action | Drama

General
Unique ID : 178852805062890628629581646830558689842 (0x868DCC1B406D1E9E912CD66B8362BA32)
Complete name : Goemon (2009) 720p Blu-Ray x264 [Dual-Audio][Japanese 5.1 + Hindi 2.0] – Mafiaking – TeamTNT.mkv
Format : Matroska
Format version : Version 4 / Version 2
File size : 1.11 GiB
Duration : 2h 7mn
Overall bit rate : 1 245 Kbps
Movie name : Goemon (2009) 720p Blu-Ray x264 [Dual-Audio][Japanese 5.1 + Hindi 2.0] – Mafiaking – TeamTNT
Encoded date : UTC 2014-10-05 13:26:18
Writing application : mkvmerge v7.0.0 (‘Where We Going’) 64bit built on Jun 9 2014 15:16:27
Writing library : libebml v1.3.0 + libmatroska v1.4.1

Video
ID : 1
Format : AVC
Format/Info : Advanced Video Codec
Format profile : [email protected]
Format settings, CABAC : Yes
Format settings, ReFrames : 4 frames
Codec ID : V_MPEG4/ISO/AVC
Duration : 2h 7mn
Bit rate : 900 Kbps
Width : 1 280 pixels
Height : 544 pixels
Display aspect ratio : 2.35:1
Frame rate mode : Constant
Frame rate : 23.976 fps
Color space : YUV
Chroma subsampling : 4:2:0
Bit depth : 8 bits
Scan type : Progressive
Bits/(Pixel*Frame) : 0.054
Stream size : 794 MiB (70%)
Title : Mafiaking
Language : Japanese
Default : Yes
Forced : No

Audio #1
ID : 2
Format : AC-3
Format/Info : Audio Coding 3
Mode extension : CM (complete main)
Format settings, Endianness : Big
Codec ID : A_AC3
Duration : 2h 7mn
Bit rate mode : Constant
Bit rate : 128 Kbps
Channel(s) : 2 channels
Channel positions : Front: L R
Sampling rate : 48.0 KHz
Bit depth : 16 bits
Compression mode : Lossy
Stream size : 117 MiB (10%)
Title : Mafiaking
Language : Hindi
Default : Yes
Forced : No

Audio #2
ID : 3
Format : AC-3
Format/Info : Audio Coding 3
Mode extension : CM (complete main)
Format settings, Endianness : Big
Codec ID : A_AC3
Duration : 2h 7mn
Bit rate mode : Constant
Bit rate : 224 Kbps
Channel(s) : 6 channels
Channel positions : Front: L C R, Side: L R, LFE
Sampling rate : 48.0 KHz
Bit depth : 16 bits
Compression mode : Lossy
Stream size : 205 MiB (18%)
Title : Mafiaking
Language : Japanese
Default : No
Forced : No

                       

Category: Movies > Hollywood Dub
Lang: Hindi
Total Size: 1.12 GB
Sample
:download:

|| Download This Movie Via Single Resumable Links Size: 1.11 GB ||

Direct-1 Google Drive | Direct-2 | Direct-3 |

Watch Online Click Here