Haseena (2018) Hindi 720p Itunes-DL AAC DD2.0 + AC3 DD5.1 ~ TeamTelly Exclusive

Poster

iMDB

Title: Haseena
Year: 2018
Votes: 22
Rating: 5.8/10
Language: Hindi
Tagline: The Queen of Hearts
Director: Vicky Ranawat
Writing By: Rishi Aazad,
Produced By: Vicky Ranawat,Jitendra Wagadia,
Cast:
Mohit Arora as Rajan
Inayat Sharma as Haseena
Arpit Soni as Rohit
Ankur Verma as Rahul

Details

Name: Haseena (2018) Hindi 720p Itunes-DL AAC DD2.0 Esub ~ TeamTelly Exclusive
Description:

Haseena (2018) Hindi 720p Itunes-DL AAC DD2.0 Esub ~ TeamTelly Exclusive

Format                                   : Matroska
Format version                           : Version 4 / Version 2
File size                                : 1.27 GiB
Duration                                 : 2 h 7 min
Overall bit rate                         : 1 433 kb/s

Video
ID                                       : 1
Format                                   : AVC
Format/Info                              : Advanced Video Codec
Format profile                           : [email protected]
Format settings                          : CABAC / 4 Ref Frames
Format settings, CABAC                   : Yes
Format settings, ReFrames                : 4 frames
Codec ID                                 : V_MPEG4/ISO/AVC
Duration                                 : 2 h 7 min
Bit rate                                 : 917 kb/s
Width                                    : 1 280 pixels
Height                                   : 542 pixels
Display aspect ratio                     : 2.35:1
Frame rate mode                          : Constant
Frame rate                               : 25.000 FPS
Color space                              : YUV
Chroma subsampling                       : 4:2:0
Bit depth                                : 8 bits
Scan type                                : Progressive
Bits/(Pixel*Frame)                       : 0.053
Stream size                              : 836 MiB (64%)
Writing library                          : x264 core 148 r2643 5c65704
Language                                 : English
Default                                  : Yes
Forced                                   : No

Audio #1
ID                                       : 2
Format                                   : AAC
Format/Info                              : Advanced Audio Codec
Format profile                           : LC
Codec ID                                 : A_AAC-2
Duration                                 : 2 h 7 min
Bit rate                                 : 126 kb/s
Channel(s)                               : 2 channels
Channel positions                        : Front: L R
Sampling rate                            : 48.0 kHz
Frame rate                               : 46.875 FPS (1024 SPF)
Compression mode                         : Lossy
Stream size                              : 114 MiB (9%)
Language                                 : Hindi
Default                                  : Yes
Forced                                   : No

Audio #2
ID                                       : 3
Format                                   : AC-3
Format/Info                              : Audio Coding 3
Codec ID                                 : A_AC3
Duration                                 : 2 h 7 min
Bit rate mode                            : Constant
Bit rate                                 : 384 kb/s
Channel(s)                               : 6 channels
Channel positions                        : Front: L C R, Side: L R, LFE
Sampling rate                            : 48.0 kHz
Frame rate                               : 31.250 FPS (1536 SPF)
Bit depth                                : 16 bits
Compression mode                         : Lossy
Stream size                              : 349 MiB (27%)
Language                                 : Hindi
Service kind                             : Complete Main
Default                                  : No
Forced                                   : No

Menu
00:00:00.000                             : en:1
00:18:05.625                             : en:2
00:28:06.958                             : en:3
00:52:32.916                             : en:4
02:03:39.666                             : en:5

 

Y3kqD.th.png Y3g7J.th.png Y3K48.th.png Y3uy5.th.png Y3obg.th.png Y3f8m.th.png Y3hXA.th.png Y3TFR.th.png Y30Ke.th.png Y3qLU.th.png Y3G4n.th.png
Category: Movies > Bollywood
Lang: Hindi
Total Size: 1.27 GB

|| Download This Movie Via Single Resumable Links Size: 1.27 GB ||

Direct-1 Google Drive | Direct-2 | Direct-3 |

Watch Online Click Here