Hotel Transylvania 2 (2015) BluRay 720p x264 Dual Audio [Hindi + Eng] Esubs

Poster

iMDB

Imdb Picture Title: Hotel Transylvania 2
Year: 2015
Runtime: 89 minutes
Votes: 77185
Rating: 6.7/10
Language: English
Country: USA
All Genres: Animation, Comedy, Family, Fantasy, Horror
Plot Outline: Dracula and his friends try to bring out the monster in his half human, half vampire grandson in order to keep Mavis from leaving the hotel.
Tagline: Drac’s pack is back
Director: Genndy Tartakovsky
Writing By: Robert Smigel,Adam Sandler,Todd Durham,
Produced By: Lisa Bechard,Allen Covert,Skye Lyons,Michelle Murdocca,Adam Sandler,Robert Smigel,Ben Waisbren,
Music: Mark Mothersbaugh
Cast:
Adam Sandler as Dracula
Andy Samberg as Jonathan
Selena Gomez as Mavis
Kevin James as Frankenstein
Steve Buscemi as Wayne
David Spade as Griffin
Keegan-Michael Key as Murray
Asher Blinkoff as Dennis
Fran Drescher as Eunice
Molly Shannon as Wanda
Trailers:
Trailer #2
Teaser Trailer
Hotel Transylvania 2 Teaser
Details

Name: Hotel Transylvania 2 (2015) BluRay 720p x264 Dual Audio [Hindi + Eng] Esubs
Description:

Hotel Transylvania 2 (2015) BluRay 720p x264 Dual Audio [Hindi + Eng] Esubs



HOTEL-_TRANSYLVANIA-2_BDDVD-23_D

 

Format                                   : Matroska
Format version                           : Version 4 / Version 2
File size                                : 822 MiB
Duration                                 : 1 h 29 min
Overall bit rate                         : 1 287 kb/s
Encoded date                             : UTC 2018-02-27 12:43:52
Writing application                      : mkvmerge v9.7.1 (‘Pandemonium’) 64bit
Writing library                          : libebml v1.3.4 + libmatroska v1.4.5

Video
ID                                       : 1
Format                                   : AVC
Format/Info                              : Advanced Video Codec
Format profile                           : [email protected]
Format settings, CABAC                   : Yes
Format settings, ReFrames                : 4 frames
Codec ID                                 : V_MPEG4/ISO/AVC
Duration                                 : 1 h 29 min
Bit rate                                 : 900 kb/s
Width                                    : 1 280 pixels
Height                                   : 692 pixels
Display aspect ratio                     : 1.85:1
Frame rate mode                          : Constant
Frame rate                               : 23.976 (24000/1001) FPS
Color space                              : YUV
Chroma subsampling                       : 4:2:0
Bit depth                                : 8 bits
Scan type                                : Progressive
Bits/(Pixel*Frame)                       : 0.042
Stream size                              : 575 MiB (70%)
Writing library                          : x264 core 142 r2479 dd79a61
Encoding settings                        : cabac=1 / ref=4 / deblock=1:-1:-1 / analyse=0x3:0x133 / me=umh / subme=9 / psy=1 / psy_rd=1.00:0.15 / mixed_ref=1 / me_range=24 / chroma_me=1 / trellis=2 / 8x8dct=1 / cqm=0 / deadzone=21,11 / fast_pskip=0 / chroma_qp_offset=-3 / threads=12 / lookahead_threads=1 / sliced_threads=0 / nr=0 / decimate=1 / interlaced=0 / bluray_compat=0 / constrained_intra=0 / bframes=3 / b_pyramid=2 / b_adapt=2 / b_bias=0 / direct=3 / weightb=1 / open_gop=0 / weightp=2 / keyint=250 / keyint_min=23 / scenecut=40 / intra_refresh=0 / rc_lookahead=60 / rc=2pass / mbtree=1 / bitrate=900 / ratetol=1.0 / qcomp=0.60 / qpmin=0 / qpmax=69 / qpstep=4 / cplxblur=20.0 / qblur=0.5 / vbv_maxrate=31250 / vbv_bufsize=31250 / nal_hrd=none / filler=0 / ip_ratio=1.40 / aq=1:1.00
Default                                  : Yes
Forced                                   : No
Color range                              : Limited
Color primaries                          : BT.709
Transfer characteristics                 : BT.709
Matrix coefficients                      : BT.709

Audio #1
ID                                       : 2
Format                                   : AAC
Format/Info                              : Advanced Audio Codec
Format profile                           : LC
Codec ID                                 : A_AAC
Duration                                 : 1 h 29 min
Bit rate                                 : 128 kb/s
Channel(s)                               : 2 channels
Channel positions                        : Front: L R
Sampling rate                            : 48.0 kHz
Frame rate                               : 46.875 FPS (1024 spf)
Compression mode                         : Lossy
Stream size                              : 82.0 MiB (10%)
Language                                 : English
Default                                  : No
Forced                                   : No

Audio #2
ID                                       : 4
Format                                   : MPEG Audio
Format version                           : Version 1
Format profile                           : Layer 3
Mode                                     : Joint stereo
Mode extension                           : MS Stereo
Codec ID                                 : A_MPEG/L3
Codec ID/Hint                            : MP3
Duration                                 : 1 h 29 min
Bit rate mode                            : Constant
Bit rate                                 : 256 kb/s
Channel(s)                               : 2 channels
Sampling rate                            : 44.1 kHz
Frame rate                               : 38.281 FPS (1152 spf)
Compression mode                         : Lossy
Stream size                              : 164 MiB (20%)
Title                                    : By-MAHER
Writing library                          : LAME3.98.2
Language                                 : Hindi
Default                                  : Yes
Forced                                   : Yes

Text
ID                                       : 3
Format                                   : UTF-8
Codec ID                                 : S_TEXT/UTF8
Codec ID/Info                            : UTF-8 Plain Text
Duration                                 : 1 h 18 min
Bit rate                                 : 69 b/s
Count of elements                        : 1300
Stream size                              : 39.8 KiB (0%)
Language                                 : English
Default                                  : Yes
Forced                                   : No

PAK Dubbed Audio

e9916da429db3aae975b04939f449128.th.png 77f738c1b4bebec852e88850ff5d5a5e.th.png d16eb488b668b15cd8cd4b34c16664ac.th.png 796c517b9403b00bf4f9e9945c7ca76b.th.png

Category: Movies > Hollywood Dub
Lang: Hindi
Total Size: 844.46 MB
Sample
:download:

|| Download This Movie Via Single Resumable Links Size: 887 MB ||

Direct-1 Google Drive | Direct-2 | Direct-3 |

Watch Online Click Here