I Love Us (2018) Hindi Complete S01 1080p WEB-DL H264 AAC DD2.0 ~TeamTelly

I Love Us (2018) Hindi Complete S01 1080p WEB-DL H264 AAC DD2.0 ~TeamTelly

General
Format                                   : MPEG-4
Format profile                           : Base Media / Version 2
Codec ID                                 : mp42 (mp42/mp41/isom/avc1)
File size                                : 794 MiB
Duration                                 : 22 min 35 s
Overall bit rate mode                    : Variable
Overall bit rate                         : 4 914 kb/s
Encoded date                             : UTC 2018-03-21 15:38:17
Tagged date                              : UTC 2018-03-21 15:38:17

Video
ID                                       : 1
Format                                   : AVC
Format/Info                              : Advanced Video Codec
Format profile                           : [email protected]
Format settings                          : CABAC / 5 Ref Frames
Format settings, CABAC                   : Yes
Format settings, ReFrames                : 5 frames
Codec ID                                 : avc1
Codec ID/Info                            : Advanced Video Coding
Duration                                 : 22 min 35 s
Bit rate                                 : 4 653 kb/s
Width                                    : 1 920 pixels
Height                                   : 1 080 pixels
Display aspect ratio                     : 16:9
Frame rate mode                          : Constant
Frame rate                               : 25.000 FPS
Color space                              : YUV
Chroma subsampling                       : 4:2:0
Bit depth                                : 8 bits
Scan type                                : Progressive
Bits/(Pixel*Frame)                       : 0.090
Stream size                              : 752 MiB (95%)
Writing library                          : x264 core 155 r10 7d0ff22
Encoded date                             : UTC 2018-03-21 15:38:17
Tagged date                              : UTC 2018-03-21 15:38:17
Color range                              : Limited
Color primaries                          : BT.709
Transfer characteristics                 : BT.709
Matrix coefficients                      : BT.709

Audio
ID                                       : 2
Format                                   : AAC
Format/Info                              : Advanced Audio Codec
Format profile                           : LC
Codec ID                                 : mp4a-40-2
Duration                                 : 22 min 35 s
Bit rate mode                            : Variable
Bit rate                                 : 256 kb/s
Channel(s)                               : 2 channels
Channel positions                        : Front: L R
Sampling rate                            : 48.0 kHz
Frame rate                               : 46.875 FPS (1024 SPF)
Compression mode                         : Lossy
Stream size                              : 41.4 MiB (5%)
Encoded date                             : UTC 2018-03-21 15:38:17
Tagged date                              : UTC 2018-03-21 15:38:17

e0uB8.th.png e0k5t.th.png e08iJ.th.png e0f3D.th.png e0T7g.th.png e0d05.th.png e00Wm.th.png

|| Download This Tv Show Via Single Resumable Links Size: 5.18 GB ||

Direct-1 Google Drive | Direct-2 | Direct-3 |

For Uncut Episode Click Here

Incoming search terms: