Incredibles 2 (2018) 720p WEB-DL M.Clean Audio [Hindi + Telugu + Tamil + Eng] E-Sub 1.1GB- [TMV]

Poster

iMDB

Imdb Picture Title: Incredibles 2
Year: 2018
Runtime: 118 minutes
Votes: 11407
Rating: 8.6/10
Language: English
Country: USA
All Genres: Animation, Action, Adventure, Comedy, Family, Sci-Fi
Plot Outline: Bob Parr (Mr. Incredible) is left to care for Jack-Jack while Helen (Elastigirl) is out saving the world.
Tagline: Back to work.
Director: Brad Bird
Writing By: Brad Bird,
Produced By: Nicole Paradis Grindle,John Lasseter,John Walker,
Music: Michael Giacchino
Cast:
Craig T. Nelson as Bob Parr / Mr. Incredible
Holly Hunter as Helen Parr / Elastigirl
Sarah Vowell as Violet Parr
Huck Milner as Dashiell Parr (Dash)
Catherine Keener as Evelyn Deavor
Eli Fucile as Jack-Jack Parr
Bob Odenkirk as Winston Deavor
Samuel L. Jackson as Lucius Best / Frozone
Michael Bird as Tony Rydinger
Sophia Bush as Voyd
Trailers:
Official Trailer
Winter Games TV Spot
Official Teaser Trailer
Details

Name: Incredibles 2 (2018) 720p WEB-DL M.Clean Audio [Hindi + Telugu + Tamil + Eng] E-Sub 1.1GB- [TMV]
Description:

Incredibles 2 (2018) 720p WEB-DL M.Clean Audio [Hindi + Telugu + Tamil + Eng] E-Sub 1.1GB- [TMV]
 

General
Format                                   : Matroska
Format version                           : Version 4 / Version 2
File size                                : 1.04 GiB
Duration                                 : 1 h 57 min
Overall bit rate mode                    : Variable
Overall bit rate                         : 1 269 kb/s

Video
ID                                       : 1
Format                                   : AVC
Format/Info                              : Advanced Video Codec
Format profile                           : [email protected]
Format settings                          : CABAC / 4 Ref Frames
Format settings, CABAC                   : Yes
Format settings, ReFrames                : 4 frames
Codec ID                                 : V_MPEG4/ISO/AVC
Duration                                 : 1 h 57 min
Bit rate                                 : 816 kb/s
Width                                    : 1 280 pixels
Height                                   : 536 pixels
Display aspect ratio                     : 2.40:1
Frame rate mode                          : Constant
Frame rate                               : 23.976 (24000/1001) FPS
Color space                              : YUV
Chroma subsampling                       : 4:2:0
Bit depth                                : 8 bits
Scan type                                : Progressive
Bits/(Pixel*Frame)                       : 0.050
Stream size                              : 688 MiB (64%)
Writing library                          : x264 core 155 r2901 7d0ff22
Language                                 : English
Default                                  : Yes
Forced                                   : No

Audio #1
ID                                       : 2
Format                                   : MPEG Audio
Format version                           : Version 1
Format profile                           : Layer 3
Format settings                          : Joint stereo / MS Stereo
Codec ID                                 : A_MPEG/L3
Codec ID/Hint                            : MP3
Duration                                 : 1 h 57 min
Bit rate mode                            : Variable
Bit rate                                 : 104 kb/s
Nominal bit rate                         : 128 kb/s
Channel(s)                               : 2 channels
Sampling rate                            : 48.0 kHz
Frame rate                               : 41.667 FPS (1152 SPF)
Compression mode                         : Lossy
Stream size                              : 88.1 MiB (8%)
Writing library                          : LAME3.99r
Encoding settings                        : -m j -V 4 -q 3 -lowpass 17 –abr 128
Language                                 : Telugu
Default                                  : Yes
Forced                                   : No

Audio #2
ID                                       : 3
Format                                   : MPEG Audio
Format version                           : Version 1
Format profile                           : Layer 3
Format settings                          : Joint stereo / MS Stereo
Codec ID                                 : A_MPEG/L3
Codec ID/Hint                            : MP3
Duration                                 : 1 h 57 min
Bit rate mode                            : Variable
Bit rate                                 : 128 kb/s
Channel(s)                               : 2 channels
Sampling rate                            : 48.0 kHz
Frame rate                               : 41.667 FPS (1152 SPF)
Compression mode                         : Lossy
Stream size                              : 109 MiB (10%)
Writing library                          : LAME3.99r
Encoding settings                        : -m j -V 4 -q 3 -lowpass 17 –abr 128
Language                                 : Tamil
Default                                  : No
Forced                                   : No

Audio #3
ID                                       : 4
Format                                   : MPEG Audio
Format version                           : Version 1
Format profile                           : Layer 3
Format settings                          : Joint stereo / MS Stereo
Codec ID                                 : A_MPEG/L3
Codec ID/Hint                            : MP3
Duration                                 : 1 h 57 min
Bit rate mode                            : Variable
Bit rate                                 : 112 kb/s
Nominal bit rate                         : 128 kb/s
Channel(s)                               : 2 channels
Sampling rate                            : 48.0 kHz
Frame rate                               : 41.667 FPS (1152 SPF)
Compression mode                         : Lossy
Stream size                              : 94.1 MiB (9%)
Writing library                          : LAME3.99r
Encoding settings                        : -m j -V 4 -q 3 -lowpass 17 –abr 128
Language                                 : Hindi
Default                                  : No
Forced                                   : No

Audio #4
ID                                       : 5
Format                                   : MPEG Audio
Format version                           : Version 1
Format profile                           : Layer 3
Format settings                          : Joint stereo / MS Stereo
Codec ID                                 : A_MPEG/L3
Codec ID/Hint                            : MP3
Duration                                 : 1 h 57 min
Bit rate mode                            : Variable
Bit rate                                 : 104 kb/s
Nominal bit rate                         : 128 kb/s
Channel(s)                               : 2 channels
Sampling rate                            : 48.0 kHz
Frame rate                               : 41.667 FPS (1152 SPF)
Compression mode                         : Lossy
Stream size                              : 87.4 MiB (8%)
Writing library                          : LAME3.99r
Encoding settings                        : -m j -V 4 -q 3 -lowpass 17 –abr 128
Language                                 : English
Default                                  : No
Forced                                   : No

Text
ID                                       : 6
Format                                   : UTF-8
Codec ID                                 : S_TEXT/UTF8
Codec ID/Info                            : UTF-8 Plain Text
Duration                                 : 1 h 54 min
Bit rate                                 : 71 b/s
Count of elements                        : 2023
Stream size                              : 60.3 KiB (0%)
Language                                 : English
Default                                  : Yes
Forced                                   : No
83b00fc291446647e1b7f0aebf37e04d.md.png5051c0f1f45948d731a13bebdb435cac.md.png
a0821cd4c96757baa1e21d26060e7741.md.pngde811dfefb7d372818ae21ad7585cd8a.md.png
eb99f842963f5fb29be72d6713b642a5.md.png

Category: Movies > Hollywood Dub
Lang: Hindi
Total Size: 1.04 GB

|| Download This Movie Via Single Resumable Links Size: 1.04 GB ||

Direct-1 Google Drive | Direct-2 | Direct-3 |

Watch Online Click Here