Maatr (2017) Hindi 720p Web-HD x264 AAC ESub ~Katyayan~

Poster

iMDB

Imdb Picture Title: Maatr
Year: 2017
Runtime: 113 minutes
Votes: 39
Rating: 7.1/10
Language: Hindi
Country: India
All Genres: Thriller
Plot Outline: Vidya, who’s left shattered after her daughter Tia’s murder, seeks vengeance by fighting the broken justice and criminal system.
Director: Ashtar Sayed
Writing By: Michael Pellico,Mishkka Shekhawat,
Produced By: Manoj Adhikari,Shailendra Kaushik,Asif Khan,Michael Pellico,Stephen Pellico,Anjum Rizvi,Yaniv Rokah,Ayesha Shiva,
Music: Utkarsh Umesh Dhotekar
Plot:

Vidya, who’s left shattered after her daughter Tia’s murder, seeks vengeance by fighting the broken justice and criminal system.

Cast:
Raveena Tandon as Vidya Chauhan
Madhur Mittal as Apurva Malik
Alisha Khan as Tia
Anurag Arora as Inspector Jayant Shroff
Divya Jagdale as Ritu
Saheem Khan as Inspector Akhil
Piyush Kaushik as Sikander Beniwal
Shailender Goel as Govardhan Malik
Nitin Sharma as Inder Jhangra
Ishan Bhatt as Kamran Qureshi

Details

Name: Maatr (2017) Hindi 720p Web-HD x264 AAC ESub ~Katyayan~
Description:

Maatr (2017) Hindi 720p Web-HD x264 AAC ESub ~Katyayan~

 

-=General=-

Format                                   : Matroska
Format version                           : Version 4 / Version 2
File size                                : 884 MiB
Duration                                 : 1 h 42 min
Overall bit rate                         : 1 209 kb/s
Movie name                               : Maatr (2017) Hindi 720p Web-HD x264 AAC ESub ~Katyayan~

-=Video=-

ID                                       : 1
Format                                   : AVC
Format/Info                              : Advanced Video Codec
Format profile                           : [email protected]
Format settings, CABAC                   : Yes
Format settings, ReFrames                : 4 frames
Codec ID                                 : V_MPEG4/ISO/AVC
Duration                                 : 1 h 42 min
Bit rate                                 : 1 050 kb/s
Width                                    : 1 280 pixels
Height                                   : 538 pixels
Display aspect ratio                     : 2.40:1
Frame rate mode                          : Constant
Frame rate                               : 23.976 (23976/1000) FPS
Color space                              : YUV
Chroma subsampling                       : 4:2:0
Bit depth                                : 8 bits
Scan type                                : Progressive
Bits/(Pixel*Frame)                       : 0.064
Stream size                              : 767 MiB (87%)
Title                                    : Maatr (2017) Hindi 720p Web-HD x264 AAC ESub ~Katyayan~
Language                                 : Hindi
Default                                  : Yes
Forced                                   : No
Color range                              : Limited
Color primaries                          : BT.709
Transfer characteristics                 : BT.709
Matrix coefficients                      : BT.709

-=Audio=-

ID                                       : 2
Format                                   : AAC
Format/Info                              : Advanced Audio Codec
Format profile                           : LC
Codec ID                                 : A_AAC
Duration                                 : 1 h 42 min
Bit rate                                 : 157 kb/s
Channel(s)                               : 2 channels
Channel positions                        : Front: L R
Sampling rate                            : 48.0 kHz
Frame rate                               : 46.875 FPS (1024 spf)
Compression mode                         : Lossy
Delay relative to video                  : -21 ms
Stream size                              : 115 MiB (13%)
Title                                    : ~Katyayan~
Language                                 : Hindi
Default                                  : Yes
Forced                                   : Yes

-=Text=-

ID                                       : 3
Format                                   : UTF-8
Codec ID                                 : S_TEXT/UTF8
Codec ID/Info                            : UTF-8 Plain Text
Duration                                 : 1 h 32 min
Bit rate                                 : 11 b/s
Count of elements                        : 6
Stream size                              : 7.52 KiB (0%)
Title                                    : ~Katyayan~
Language                                 : English
Default                                  : Yes
Forced                                   : Yes

                               

Category: Movies > Bollywood
Lang: Hindi
Total Size: 896.66 MB
Sample
:download:

|| Download This Movie Via Single Resumable Links Size: 884 MB ||

Direct-1 Google Drive | Direct-2 | Direct-3 |

Watch Online Click Here