Mercury (2018) HindI 1080p UntoucheD WEB-DL AVC AAC DD2.0 ~TeamTelly Exclusive

Poster

iMDB

Title: Mercury
Year: 2018
Runtime: 106 minutes
Votes: 16
Rating: 7.6/10
Country: India
All Genres: Horror, Thriller
Plot Outline: A group of youngsters try to escape from a man who has fallen prey to mercury poisoning in this silent thriller.
Tagline: Silence is the most powerful scream
Director: Karthik Subbaraj

Produced By: Jayantilal Gada,M. Ashok Narayanan,Kaarthekeyen Santhanam,Kalyan Subramanian,
Music: Santhosh Narayanan
Cast:
Gajaraj as
Ramya Nambeeshan as
Prabhudheva as
Sananth Reddy as
Trailers:
Official ‘Mercury’ Teaser

Details

Name: Mercury (2018) HindI 1080p UntoucheD WEB-DL AVC AAC DD2.0 ~TeamTelly Exclusive
Description:

Mercury (2018) HindI 1080p UntoucheD WEB-DL AVC AAC DD2.0 ~TeamTelly Exclusive

      

Format                                   : MPEG-4
Format profile                           : Base Media
Codec ID                                 : isom (isom/iso2/avc1/mp41)
File size                                : 2.17 GiB
Duration                                 : 1 h 42 min
Overall bit rate                         : 3 040 kb/s
Writing application                      : Lavf58.18.104

Video
ID                                       : 1
Format                                   : AVC
Format/Info                              : Advanced Video Codec
Format profile                           : [email protected]
Format settings                          : CABAC / 4 Ref Frames
Format settings, CABAC                   : Yes
Format settings, ReFrames                : 4 frames
Codec ID                                 : avc1
Codec ID/Info                            : Advanced Video Coding
Duration                                 : 1 h 42 min
Bit rate                                 : 3 000 kb/s
Width                                    : 1 920 pixels
Height                                   : 1 080 pixels
Display aspect ratio                     : 16:9
Frame rate mode                          : Constant
Frame rate                               : 25.000 FPS
Color space                              : YUV
Chroma subsampling                       : 4:2:0
Bit depth                                : 8 bits
Scan type                                : Progressive
Bits/(Pixel*Frame)                       : 0.058
Stream size                              : 2.12 GiB (98%)
Writing library                          : x264 core 152 r2854 e9a5903

Audio
ID                                       : 2
Format                                   : AAC
Format/Info                              : Advanced Audio Codec
Format profile                           : LC
Codec ID                                 : mp4a-40-2
Duration                                 : 1 h 42 min
Bit rate mode                            : Constant
Bit rate                                 : 63.6 kb/s
Channel(s)                               : 2 channels
Channel positions                        : Front: L R
Sampling rate                            : 48.0 kHz
Frame rate                               : 46.875 FPS (1024 SPF)
Compression mode                         : Lossy
Stream size                              : 46.4 MiB (2%)
Default                                  : Yes
Alternate group                          : 1

ezgVE.th.png ezBaM.th.png ezAt3.th.png ezOov.th.png ezk1d.th.png ezuA9.th.png ez8et.th.png ezfp8.th.png
Category: Movies > Bollywood
Lang: Hindi
Total Size: 2.17 GB

|| Download This Movie Via Single Resumable Links Size: 2.17 GB ||

Direct-1 Google Drive | Direct-2 | Direct-3 |

Watch Online Click Here