Mercury Rising (1998) BRRip 720p x264 Dual Audio [Hindi DD5.1 – English DD2.0] ~ Ranvijay

Poster

iMDB

Imdb Picture Title: Mercury Rising
Year: 1998
Runtime: 111 minutes
Votes: 56955
Rating: 6.1/10
Language: English
Country: USA
All Genres: Action, Crime, Drama, Thriller
Plot Outline: Shadowy elements in the NSA target a nine-year old autistic savant for death when he is able to decipher a top secret code.
Tagline: The boy no one could reach. The code no one could crack. The agent no one could stop.
Director: Harold Becker
Writing By: Ryne Douglas Pearson,Lawrence Konner,Mark Rosenthal,
Produced By: Brian Grazer,Karen Kehela Sherwood,Ric Kidney,Thomas J. Mack,Paul Neesan,Maureen Peyrot,Joseph Singer,
Music: John Barry
Plot:

Bruce Willis is an outcast FBI agent who protects a 9 year old autistic boy who is the target for assassins after cracking a top secret government code.

Written by ShowBob <[email protected]>

The NSA has developed what they believe is an unbreakable code which they call MERCURY. Now they ran a test to see if anyone can decipher the code by putting it in a puzzle magazine. Now Simon Lynch, an autistic boy who has an affinity for puzzles sees it and deciphers it and calls the NSA. Concerned the men in charge call their boss Kudrow and inform of what happened. Kudrow worried what might happen if this gets out orders that Simon be terminated. The man he sends kills his parents but is unable to find Simon and leaves when the police arrive. The police call the FBI to send someone to take a report of Simon who is missing and the man they send Art Jeffries is not exactly in good standing with the FBI because of an incident that occurred recently and is also not exactly OK because of the incident. Art finds Simon, who was hiding and takes him to the hospital. While there, the assassin takes another try but Art saves Simon and they go on the run.

Written by [email protected]

The United States government is about to launch its brand new super code. Impossible to break, or so they thought until it was broken by a nine year old autistic boy. Now the bodies are piling up to keep it secret and the mercury is rising.

Written by Lyle Jordan <[email protected]>

Shadowy elements in the NSA target a nine-year old autistic savant for death when he is able to decipher a top secret code.

Written by [email protected]
Cast:
Bruce Willis as Art Jeffries
Alec Baldwin as Nick Kudrow
Miko Hughes as Simon Lynch
Chi McBride as Tommy B. Jordan
Kim Dickens as Stacey
Robert Stanton as Dean Crandell
Bodhi Elfman as Leo Pedranski
Carrie Preston as Emily Lang
Lindsey Ginter as Peter Burrell
Peter Stormare as Shayes

Details

Name: Mercury Rising (1998) BRRip 720p x264 Dual Audio [Hindi DD5.1 – English DD2.0] ~ Ranvijay
Description:

Mercury Rising (1998) BRRip 720p x264 Dual Audio [Hindi DD5.1 – English DD2.0] ~ Ranvijay
 

Thanks To SJ For Hindi Audio

Format                                   : Matroska
Format version                           : Version 4 / Version 2
File size                                : 700 MiB
Duration                                 : 1 h 51 min
Overall bit rate                         : 879 kb/s
Movie name                               : Mercury Rising (1998) 720p BrRip x264 Dual Audio [Hindi DD5.1 – English DD2.0] ~ Ranvijay
Encoded date                             : UTC 2018-02-16 00:46:07

Video
Duration                                 : 1 h 51 min
Bit rate                                 : 650 kb/s
Width                                    : 1 280 pixels
Height                                   : 544 pixels
Display aspect ratio                     : 2.35:1
Frame rate mode                          : Constant
Frame rate                               : 23.976 (23976/1000) FPS
Color space                              : YUV
Chroma subsampling                       : 4:2:0
Bit depth                                : 8 bits
Scan type                                : Progressive
Bits/(Pixel*Frame)                       : 0.039
Stream size                              : 517 MiB (74%)
Title                                    : ~Ranvijay~
Default                                  : Yes
Forced                                   : No

Audio #1
ID                                       : 2
Format                                   : AC-3
Format/Info                              : Audio Coding 3
Codec ID                                 : A_AC3
Duration                                 : 1 h 51 min
Bit rate mode                            : Constant
Bit rate                                 : 192 kb/s
Channel(s)                               : 6 channels
Channel positions                        : Front: L C R, Side: L R, LFE
Sampling rate                            : 48.0 kHz
Frame rate                               : 31.250 FPS (1536 SPF)
Bit depth                                : 16 bits
Compression mode                         : Lossy
Stream size                              : 153 MiB (22%)
Title                                    : ~Ranvijay~
Language                                 : Hindi
Service kind                             : Complete Main
Default                                  : Yes
Forced                                   : No

Audio #2
ID                                       : 3
Format                                   : AAC
Format/Info                              : Advanced Audio Codec
Format profile                           : HE-AAC / LC
Format settings                          : Implicit
Codec ID                                 : A_AAC-2
Duration                                 : 1 h 51 min
Bit rate                                 : 35.0 kb/s
Channel(s)                               : 2 channels
Channel positions                        : Front: L R
Sampling rate                            : 48.0 kHz / 24.0 kHz
Frame rate                               : 23.438 FPS (1024 SPF)
Compression mode                         : Lossy
Stream size                              : 27.9 MiB (4%)
Title                                    : ~Ranvijay~
Language                                 : English
Default                                  : No
Forced                                   : No

7c6efdc5ad2faa0b73e935580c4dacc9.th.png 49c6f7a3b47cc5e228baaf51d5dfe6bc.th.png a56ac2182392f82bec2b877ddeade95e.th.png a57f60e4b1034113fc8a0f4d836db9d6.th.png 5cd2cb9c524627b1ecb734a522db72ab.th.png fa8340196da864abe485619a4cd0f18e.th.png
Category: Movies > Hollywood Dub
Lang: Hindi
Total Size: 699.70 MB
:download:

|| Download This Movie Via Single Resumable Links Size: 700 MB ||

Direct-1 Google Drive | Direct-2 | Direct-3 |

Watch Online Click Here