Nanu Ki Jaanu (2018) Hindi 720p WEB-DL x264 AC3 DD5.1

Poster

iMDB

Imdb Picture Title: Nanu Ki Jaanu
Year: 2018
Runtime: 133 minutes
Votes: 13
Rating: 8.2/10
Language: Hindi
Country: India
All Genres: Action, Comedy, Drama
Plot Outline: Nanu Ki Jaanu is a dark comedy, the story of which revolves around a Delhi land mafia agent (Abhay Deol) who tries to deal with the arrival of a ghost in his apartment.
Director: Faraz Haider
Writing By: Manu Rishi Chadha,Myshkin,
Produced By: Digambber Hari Paatil,Sajid Qureshi,Mahipal Karan Rathore,
Music: Meet Bros Jeet Gannguli Babli Haque Sajid-Wajid Gunwant Sen
Cast:
Abhay Deol as Nanu
Patralekhaa as Jaanu
Reshma Khan as Promilla
Brijendra Kala as Kumar
Sapna Chaudhary as
Manu Rishi Chadha as Dabbu
Rajesh Sharma as Siddhi’s Father
Manoj Pahwa as Muslim Man
Gurmeet Singh as Yahoo
Mahendra Shrivas as Halwayee

Details

Name: Nanu Ki Jaanu (2018) Hindi 1080p UntoucheD WEB-HD x264 AAC DD2.0
Description:

Nanu Ki Jaanu (2018) Hindi 1080p UntoucheD WEB-HD x264 AAC DD2.0

General
Format                                   : Matroska
Format version                           : Version 4 / Version 2
File size                                : 1.29 GiB
Duration                                 : 2 h 5 min
Overall bit rate                         : 1 466 kb/s

Video
ID                                       : 1
Format                                   : AVC
Format/Info                              : Advanced Video Codec
Format profile                           : [email protected]
Format settings                          : CABAC / 4 Ref Frames
Format settings, CABAC                   : Yes
Format settings, ReFrames                : 4 frames
Codec ID                                 : V_MPEG4/ISO/AVC
Duration                                 : 2 h 5 min
Bit rate                                 : 1 336 kb/s
Width                                    : 1 280 pixels
Height                                   : 536 pixels
Display aspect ratio                     : 2.40:1
Frame rate mode                          : Constant
Frame rate                               : 25.000 FPS
Color space                              : YUV
Chroma subsampling                       : 4:2:0
Bit depth                                : 8 bits
Scan type                                : Progressive
Bits/(Pixel*Frame)                       : 0.078
Stream size                              : 1.17 GiB (91%)
Writing library                          : x264 core 155 r2901 7d0ff22
Language                                 : Hindi
Default                                  : Yes
Forced                                   : No

Audio
ID                                       : 2
Format                                   : AC-3
Format/Info                              : Audio Coding 3
Codec ID                                 : A_AC3
Duration                                 : 2 h 5 min
Bit rate mode                            : Constant
Bit rate                                 : 128 kb/s
Channel(s)                               : 6 channels
Channel positions                        : Front: L C R, Side: L R, LFE
Sampling rate                            : 44.1 kHz
Frame rate                               : 28.711 FPS (1536 SPF)
Bit depth                                : 16 bits
Compression mode                         : Lossy
Stream size                              : 115 MiB (9%)
Language                                 : Hindi
Service kind                             : Complete Main
Default                                  : Yes
Forced                                   : No

eMrUs.th.png eMILV.th.png eMJRK.th.png eMyGc.th.png eY9Ez.th.png
Category: Movies > Bollywood
Lang: Hindi
Total Size: 1.29 GB

|| Download This Movie Via Single Resumable Links Size: 1.29 GB ||

Direct-1 Google Drive | Direct-2 | Direct-3 |

Watch Online Click Here