Neruppuda (2017) Hindi Dub 720p UntoucheD WEB-HD x264 AAC

Poster

iMDB

Title: Neruppuda
Year: 2017
Runtime: 127 minutes
Votes: 98
Rating: 4.8/10
Language: Tamil
All Genres: Action

Cast:
Nikki Galrani as
Nagineedu as
Vikram Prabhu as
Rajendran as
Trailers:
Neruppuda (2017) Trailer

Details

Name: Neruppuda (2017) Hindi Dub 720p UntoucheD WEB-HD x264 AAC
Description:

Neruppuda (2017) Hindi Dub 720p UntoucheD WEB-HD x264 AAC

Format                                   : MPEG-4
Format profile                           : Base Media / Version 2
Codec ID                                 : mp42 (isom/mp42)
File size                                : 944 MiB
Duration                                 : 1 h 51 min
Overall bit rate mode                    : Variable
Overall bit rate                         : 1 186 kb/s
Encoded date                             : UTC 2018-09-21 12:03:38
Tagged date                              : UTC 2018-09-21 12:03:38
gsst                                     : 0
gstd                                     : 6680009

Video
ID                                       : 1
Format                                   : AVC
Format/Info                              : Advanced Video Codec
Format profile                           : [email protected]
Format settings                          : CABAC / 3 Ref Frames
Format settings, CABAC                   : Yes
Format settings, ReFrames                : 3 frames
Codec ID                                 : avc1
Codec ID/Info                            : Advanced Video Coding
Duration                                 : 1 h 51 min
Bit rate                                 : 1 057 kb/s
Width                                    : 1 280 pixels
Height                                   : 720 pixels
Display aspect ratio                     : 16:9
Frame rate mode                          : Constant
Frame rate                               : 25.000 FPS
Color space                              : YUV
Chroma subsampling                       : 4:2:0
Bit depth                                : 8 bits
Scan type                                : Progressive
Bits/(Pixel*Frame)                       : 0.046
Stream size                              : 841 MiB (89%)
Title                                    : ISO Media file produced by Google Inc. Created on: 09/21/2018.
Encoded date                             : UTC 2018-09-21 12:03:38
Tagged date                              : UTC 2018-09-21 12:03:38
Color range                              : Limited
Color primaries                          : BT.709
Transfer characteristics                 : BT.709
Matrix coefficients                      : BT.709

Audio
ID                                       : 2
Format                                   : AAC
Format/Info                              : Advanced Audio Codec
Format profile                           : LC
Codec ID                                 : mp4a-40-2
Duration                                 : 1 h 51 min
Bit rate mode                            : Variable
Bit rate                                 : 126 kb/s
Channel(s)                               : 2 channels
Channel positions                        : Front: L R
Sampling rate                            : 44.1 kHz
Frame rate                               : 43.066 FPS (1024 SPF)
Compression mode                         : Lossy
Stream size                              : 100 MiB (11%)
Title                                    : ISO Media file produced by Google Inc. Created on: 09/21/2018.
Language                                 : English
Encoded date                             : UTC 2018-09-21 12:03:38
Tagged date                              : UTC 2018-09-21 12:03:38

3c43e950323c3021e91475ee32abda1f.jpg

Category: Movies > South Dub
Lang: Hindi
Total Size: 944.22 MB

|| Download This Movie Via Single Resumable Links Size: 944 B ||

Direct-1 Google Drive | Direct-2 | Direct-3 |

Watch Online Click Here