Race 3 (2018) Hindi 720p AMZN WEB-DL x264 AC3 DD5.1 E-Sub 1.4GB

Poster

iMDB

Imdb Picture Title: Race 3
Year: 2018
Runtime: 160 minutes
Votes: 1249
Rating: 5.9/10
Language: Hindi
Country: India
All Genres: Action, Thriller
Plot Outline: Revolves around a family that deals in borderline crime; ruthless and vindictive to the core.
Tagline: You Don’t Need Enemies When You Have a Family
Director: Remo D’Souza
Writing By: Shiraz Ahmed,Shiraz Ahmed,Kiran Kotrial,
Produced By: Chandru Bakhtiani,Narender Jani,Salma Khan,Yogendra Mogre,Kulthep Narula,Rachvin Narula,Mini Purushot,Kapil Sethi,Murli Shah,Prakash Talreja,Jaya Taurani,Ramesh Sadhuram Taurani,
Music: Salim Merchant Sulaiman Merchant
Cast:
Anil Kapoor as Shamsher
Salman Khan as Sikander
Jacqueline Fernandez as Jessica
Bobby Deol as Yash
Daisy Shah as Sanjana
Saqib Saleem as Suraj
Freddy Daruwala as Rana
Saloni Chopra as
Narendra Jha as
Najmeddin AlHadad as Mercenary
Trailers:
Race 3 Trailer with subtitles
Race 3 Trailer

Details

Name: Race 3 (2018) Hindi 720p AMZN WEB-DL x264 AC3 DD5.1 – 1.4GB – ESub
Description:

Race 3 2018 Hindi 720p AMZN WEB-DL x264 AC3 DD5.1 – 1.4GB – ESub

 

Format                                   : Matroska
Format version                           : Version 4 / Version 2
File size                                : 1.39 GiB
Duration                                 : 2 h 39 min
Overall bit rate                         : 1 256 kb/s

Video
ID                                       : 1
Format                                   : AVC
Format/Info                              : Advanced Video Codec
Format profile                           : [email protected]
Format settings                          : CABAC / 4 Ref Frames
Format settings, CABAC                   : Yes
Format settings, ReFrames                : 4 frames
Codec ID                                 : V_MPEG4/ISO/AVC
Duration                                 : 2 h 39 min
Bit rate                                 : 1 126 kb/s
Width                                    : 1 280 pixels
Height                                   : 536 pixels
Display aspect ratio                     : 2.40:1
Frame rate mode                          : Constant
Frame rate                               : 23.976 (24000/1001) FPS
Color space                              : YUV
Chroma subsampling                       : 4:2:0
Bit depth                                : 8 bits
Scan type                                : Progressive
Bits/(Pixel*Frame)                       : 0.068
Stream size                              : 1.25 GiB (90%)
Writing library                          : x264 core 155 r2901 7d0ff22
Language                                 : Hindi
Default                                  : Yes
Forced                                   : No

Audio
ID                                       : 2
Format                                   : AC-3
Format/Info                              : Audio Coding 3
Codec ID                                 : A_AC3
Duration                                 : 2 h 39 min
Bit rate mode                            : Constant
Bit rate                                 : 128 kb/s
Channel(s)                               : 6 channels
Channel positions                        : Front: L C R, Side: L R, LFE
Sampling rate                            : 44.1 kHz
Frame rate                               : 28.711 FPS (1536 SPF)
Bit depth                                : 16 bits
Compression mode                         : Lossy
Stream size                              : 146 MiB (10%)
Language                                 : Hindi
Service kind                             : Complete Main
Default                                  : Yes
Forced                                   : No

Text
ID                                       : 3
Format                                   : UTF-8
Codec ID                                 : S_TEXT/UTF8
Codec ID/Info                            : UTF-8 Plain Text
Duration                                 : 2 h 31 min
Bit rate                                 : 48 b/s
Count of elements                        : 1828
Stream size                              : 53.3 KiB (0%)
Language                                 : English
Default                                  : Yes
Forced                                   : No

                       

Category: Movies > Bollywood
Lang: Hindi
Total Size: 1.39 GB

|| Download This Movie Via Single Resumable Links Size: 1.39 GB ||

Direct-1 Google Drive | Direct-2 | Direct-3 |

Watch Online Click Here