Remo (2016) Hindi Dub 720p UntoucheD WEB-HD x264 AAC

Poster

iMDB

Imdb PictureTitle: Remo
Year: 2016
Runtime: 151 minutes
Votes: 1040
Rating: 5.8/10
Language: Tamil
Country: India
All Genres: Comedy, Romance
Plot Outline: All’s fair in love, even SK, the protagonist, who in this gender-bender of a role masquerades as a woman to nurse his relationship with a lovely young doctor.
Director: Bakkiyaraj Kannan
Writing By: Bakkiyaraj Kannan,
Produced By: R.D. Raja,
Music: Anirudh Ravichander
Plot:

Remo is an Indian Tamil-language romantic comedy film written and directed by Bakkiyaraj Kannan. The film stars Sivakarthikeyan and Keerthy Suresh in the leading roles, while Sathish, K. S. Ravikumar and Saranya Ponvannan among others portray supporting roles. Featuring music composed by Anirudh and cinematography by P. C. Sreeram, the film began production during October 2015 and released on 7th October, 2016
All’s fair in love, even SK, the protagonist, who in this gender-bender of a role masquerades as a woman to nurse his relationship with a lovely young doctor.

Written by Kiran Mascarenhas
Cast:
Yogi Babu as
Sri Divya as Guest apperance
Siva Karthikeyan as Arun / Remo
Kalyani N. as Kavya’s Mother
Aadukalam Naren as
Saranya Ponvannan as
Rajendran as
K.S. Ravikumar as
Sathish as Vallikanth
Keerthi Suresh as Dr. Kavya

 
 

Details

Name: Remo (2016) Hindi Dub 720p UntoucheD WEB-HD x264 AAC
Description:

Remo (2016) Hindi Dub 720p UntoucheD WEB-HD x264 AAC

Format                                   : MPEG-4
Format profile                           : Base Media / Version 2
Codec ID                                 : mp42 (isom/mp42)
File size                                : 948 MiB
Duration                                 : 2 h 7 min
Overall bit rate mode                    : Variable
Overall bit rate                         : 1 038 kb/s
Encoded date                             : UTC 2018-09-22 16:48:04
Tagged date                              : UTC 2018-09-22 16:48:04
gsst                                     : 0
gstd                                     : 7656431

Video
ID                                       : 1
Format                                   : AVC
Format/Info                              : Advanced Video Codec
Format profile                           : [email protected]
Format settings                          : CABAC / 3 Ref Frames
Format settings, CABAC                   : Yes
Format settings, ReFrames                : 3 frames
Codec ID                                 : avc1
Codec ID/Info                            : Advanced Video Coding
Duration                                 : 2 h 7 min
Bit rate                                 : 909 kb/s
Width                                    : 1 280 pixels
Height                                   : 720 pixels
Display aspect ratio                     : 16:9
Frame rate mode                          : Constant
Frame rate                               : 25.000 FPS
Color space                              : YUV
Chroma subsampling                       : 4:2:0
Bit depth                                : 8 bits
Scan type                                : Progressive
Bits/(Pixel*Frame)                       : 0.039
Stream size                              : 830 MiB (88%)
Title                                    : ISO Media file produced by Google Inc. Created on: 09/22/2018.
Encoded date                             : UTC 2018-09-22 16:48:04
Tagged date                              : UTC 2018-09-22 16:48:04
Color range                              : Limited
Color primaries                          : BT.709
Transfer characteristics                 : BT.709
Matrix coefficients                      : BT.709

Audio
ID                                       : 2
Format                                   : AAC
Format/Info                              : Advanced Audio Codec
Format profile                           : LC
Codec ID                                 : mp4a-40-2
Duration                                 : 2 h 7 min
Source duration                          : 2 h 7 min
Bit rate mode                            : Variable
Bit rate                                 : 126 kb/s
Channel(s)                               : 2 channels
Channel positions                        : Front: L R
Sampling rate                            : 44.1 kHz
Frame rate                               : 43.066 FPS (1024 SPF)
Compression mode                         : Lossy
Stream size                              : 115 MiB (12%)
Source stream size                       : 115 MiB (12%)
Title                                    : ISO Media file produced by Google Inc. Created on: 09/22/2018.
Language                                 : English
Encoded date                             : UTC 2018-09-22 16:48:04
Tagged date                              : UTC 2018-09-22 16:48:04

Category: Movies > South Dub
Lang: Hindi
Total Size: 947.79 MB

|| Download This Movie Via Single Resumable Links Size: 948 MB ||

Direct-1 Google Drive | Direct-2 | Direct-3 |

Watch Online Click Here