Ribbon (2017) Hindi 720p HDRip x264 AAC 900MB

Poster

iMDB

Title: Ribbon
Year: 2017
Runtime: 106 minutes
Language: Hindi
All Genres: Drama, Family
Director: Rakhee Sandilya
Writing By: Raghav Dutt,Eklavya,Manjiri Pupala,Rahul Ramchandani,Rakhee Sandilya,Rajeev Upadhyay,Rajeev Upadhyay,
Produced By: Prakash Mondal,Swathi Mondal,Girish Patel,
Music: Sagar Desai Mikey McCleary
Cast:
Raghav Dutt as Aarav
Kalki Koechlin as Sahana Mehra
Hitesh Malhan as Sardar Employee
Akanksha Nehra as HR Manager
Niraj Sah as School Vice President
Sumeet Vyas as Karan Mehra

   

Details

Name: Ribbon (2017) Hindi 720p HDRip x264 AAC 900MB [MovCr Exclusive]
Description:

Ribbon (2017) Hindi 720p HDRip x264 AAC 900MB [MovCr Exclusive]

 

Format                                   : Matroska
Format version                           : Version 4 / Version 2
File size                                : 929 MiB
Duration                                 : 1 h 42 min
Overall bit rate                         : 1 269 kb/s

Video
ID                                       : 1
Format                                   : AVC
Format/Info                              : Advanced Video Codec
Format profile                           : [email protected]
Format settings                          : CABAC / 2 Ref Frames
Format settings, CABAC                   : Yes
Format settings, RefFrames               : 2 frames
Format settings, GOP                     : M=1, N=25
Codec ID                                 : V_MPEG4/ISO/AVC
Duration                                 : 1 h 42 min
Bit rate                                 : 1 180 kb/s
Width                                    : 1 280 pixels
Height                                   : 536 pixels
Display aspect ratio                     : 2.40:1
Frame rate mode                          : Constant
Frame rate                               : 25.000 FPS
Color space                              : YUV
Chroma subsampling                       : 4:2:0
Bit depth                                : 8 bits
Scan type                                : Progressive
Bits/(Pixel*Frame)                       : 0.069
Stream size                              : 864 MiB (93%)
Language                                 : Hindi
Default                                  : Yes
Forced                                   : No

Audio
ID                                       : 2
Format                                   : AAC
Format/Info                              : Advanced Audio Codec
Format profile                           : LC
Codec ID                                 : A_AAC-2
Duration                                 : 1 h 42 min
Bit rate                                 : 87.1 kb/s
Channel(s)                               : 2 channels
Channel positions                        : Front: L R
Sampling rate                            : 48.0 kHz
Frame rate                               : 46.875 FPS (1024 SPF)
Compression mode                         : Lossy
Stream size                              : 63.8 MiB (7%)
Language                                 : Hindi
Default                                  : Yes
Forced                                   : No

 
 
 
 
 
 
 
 
 

Category: Movies > Bollywood
Lang: Hindi
Total Size: 929.22 MB

|| Download This Movie Via Single Resumable Links Size: 929 MB ||

Direct-1 Google Drive | Direct-2 | Direct-3 |

Watch Online Click Here