Sakalakala Vallavan (2015) Hindi Dub 720p UntoucheD WEB-HD AVC AAC

Poster

iMDB

Title: Sakalakala Vallavan
Year: 2015
Language: Tamil
All Genres: Comedy
Director: Suraj
Writing By: Suraj,
Produced By: K. Muralitharan,V. Swaminathan,G. Venugopal,
Music: S. Thaman
Cast:
Jayam Ravi as Shakthi
Prabhu as Shakthi’s Father
Soori as Chinnasamy
Radha Ravi as Divya’s Father
Vivek as Vettaiyan
Trisha Krishnan as Divya
Anjali as Anjali
Rajendran as Police Officer
Rekha as Shakthi’s Mother
John Vijay as
Trailers:
Sakalakala Vallavan (2015) Trailer

Details

Name: Sakalakala Vallavan Appatakkar (2015) Webrip 1080p x264 AAC 5.1 E-Subs-MBRHDRG
Description:

Sakalakala Vallavan (2015) Hindi Dub 720p UntoucheD WEB-HD AVC AAC
Format                                   : MPEG-4
Format profile                           : Base Media / Version 2
Codec ID                                 : mp42 (isom/mp42)
File size                                : 1.21 GiB
Duration                                 : 2 h 11 min
Overall bit rate mode                    : Variable
Overall bit rate                         : 1 323 kb/s
Encoded date                             : UTC 2018-08-30 16:53:27
Tagged date                              : UTC 2018-08-30 16:53:27
gsst                                     : 0
gstd                                     : 7868453

Video
ID                                       : 1
Format                                   : AVC
Format/Info                              : Advanced Video Codec
Format profile                           : [email protected]
Format settings                          : CABAC / 3 Ref Frames
Format settings, CABAC                   : Yes
Format settings, ReFrames                : 3 frames
Codec ID                                 : avc1
Codec ID/Info                            : Advanced Video Coding
Duration                                 : 2 h 11 min
Bit rate                                 : 1 193 kb/s
Width                                    : 1 280 pixels
Height                                   : 720 pixels
Display aspect ratio                     : 16:9
Frame rate mode                          : Constant
Frame rate                               : 25.000 FPS
Color space                              : YUV
Chroma subsampling                       : 4:2:0
Bit depth                                : 8 bits
Scan type                                : Progressive
Bits/(Pixel*Frame)                       : 0.052
Stream size                              : 1.09 GiB (90%)
Title                                    : ISO Media file produced by Google Inc. Created on: 08/30/2018.
Encoded date                             : UTC 2018-08-30 16:53:27
Tagged date                              : UTC 2018-08-30 16:53:27
Color range                              : Limited
Color primaries                          : BT.709
Transfer characteristics                 : BT.709
Matrix coefficients                      : BT.709

Audio
ID                                       : 2
Format                                   : AAC
Format/Info                              : Advanced Audio Codec
Format profile                           : LC
Codec ID                                 : mp4a-40-2
Duration                                 : 2 h 11 min
Bit rate mode                            : Variable
Bit rate                                 : 126 kb/s
Channel(s)                               : 2 channels
Channel positions                        : Front: L R
Sampling rate                            : 44.1 kHz
Frame rate                               : 43.066 FPS (1024 SPF)
Compression mode                         : Lossy
Stream size                              : 118 MiB (9%)
Title                                    : ISO Media file produced by Google Inc. Created on: 08/30/2018.
Language                                 : English
Encoded date                             : UTC 2018-08-30 16:53:27
Tagged date                              : UTC 2018-08-30 16:53:27

Sakalakala20Vallavan20201520720p20By20-Sworld4ufree.Blogspot.Com.jpg
Category: Movies > South Dub
Lang: Hindi
Total Size: 1.21 GB

|| Download This Movie Via Single Resumable Links Size: 1.21 GB ||

Direct-1 Google Drive | Direct-2 | Direct-3 |

Watch Online Click Here