Sophies Choice (1982) BluRay 720p Dual Audio [English – Hindi] x264 Esub

Poster

iMDB

Imdb Picture Title: Sophie’s Choice
Year: 1982
Runtime: 150 minutes
Votes: 31789
Rating: 7.7/10
Language: English, Polish, German, French, Russian
Country: UK, USA
All Genres: Drama, Romance
Plot Outline: After spending time with his new neighbors, an aspiring writer realizes they are harboring deep secrets that will forever change him.
Tagline: Between the innocent, the romantic, the sensual, and the unthinkable. There are still some things we have yet to imagine.
Director: Alan J. Pakula
Writing By: William Styron,Alan J. Pakula,
Produced By: Keith Barish,William C. Gerrity,Alan J. Pakula,Martin Starger,
Music: Marvin Hamlisch
Plot:

Sophie is the survivor of Nazi concentration camps, who has found a reason to live in Nathan, a sparkling if unsteady American Jew obsessed with the Holocaust. They befriend Stingo, the movie’s narrator, a young American writer new to New York City. But the happiness of Sophie and Nathan is endangered by her ghosts and his obsessions.

Written by Reid Gagle

After spending time with his new neighbors, an aspiring writer realizes they are harboring deep secrets that will forever change him.

Written by powermandan
Cast:
Meryl Streep as Sophie
Kevin Kline as Nathan
Peter MacNicol as Stingo
Rita Karin as Yetta
Stephen D. Newman as Larry
Greta Turken as Leslie Lapidus
Josh Mostel as Morris Fink
Marcell Rosenblatt as Astrid Weinstein
Moishe Rosenfeld as Moishe Rosenblum
Robin Bartlett as Lillian Grossman

Details

Name: Sophies Choice 1982 720p Esub BlyRay Dual Audio English Hindi GOPISAHI
Description:


Format                         : Matroska
Format version                 : Version 4 / Version 2
File size                      : 775 MiB
Duration                       : 2 h 31 min
Overall bit rate               : 717 kb/s
Movie name                     : Sophies Choice 1982 GOPISAHI

Video
Format                         : AVC
Codec ID                       : V_MPEG4/ISO/AVC
Duration                       : 2 h 31 min
Bit rate                       : 600 kb/s
Width                          : 1 280 pixels
Height                         : 696 pixels
Display aspect ratio           : 1.85:1
Frame rate mode                : Constant
Frame rate                     : 23.976 (24000/1001) FPS
Stream size                    : 648 MiB (84%)
Title                          : GOPISAHI
Writing library                : x264 core 155 r2893 b00bcaf

Audio #1
Format                         : AAC
Duration                       : 2 h 31 min
Bit rate                       : 63.3 kb/s
Channel(s)                     : 6 channels
Channel positions              : Front: L C R, Side: L R, LFE
Sampling rate                  : 44.1 kHz
Frame rate                     : 43.066 FPS (1024 SPF)
Compression mode               : Lossy
Stream size                    : 68.4 MiB (9%)
Language                       : Hindi

Audio #2
Format                         : AAC
Duration                       : 2 h 31 min
Bit rate                       : 51.2 kb/s
Channel(s)                     : 6 channels
Channel positions              : Front: L C R, Side: L R, LFE
Sampling rate                  : 44.1 kHz
Frame rate                     : 43.066 FPS (1024 SPF)
Compression mode               : Lossy
Stream size                    : 55.3 MiB (7%)
Language                       : English

Text
Language                       : English


Category: Movies > Hollywood Dub
Lang: Hindi
Total Size: 775.22 MB
:download:

|| Download This Movie Via Single Resumable Links Size: 775 MB ||

Direct-1 Google Drive | Direct-2 | Direct-3 |

Watch Online Click Here