The Terminal (2004) BluRay 720p Dual Audio [English – Hindi] x264 Esub

Poster

iMDB

Imdb Picture Title: The Terminal
Year: 2004
Runtime: 128 minutes
Votes: 326187
Rating: 7.3/10
Language: English, French, Russian, Bulgarian, Spanish
Country: USA
All Genres: Comedy, Drama, Romance
Plot Outline: An eastern immigrant finds himself stranded in JFK airport, and must take up temporary residence there.
Tagline: Life is waiting.
Director: Steven Spielberg
Writing By: Andrew Niccol,Sacha Gervasi,Sacha Gervasi,Jeff Nathanson,
Produced By: Jason Hoffs,Laurie MacDonald,Sergio Mimica-Gezzan,Andrew Niccol,Walter F. Parkes,Steven Spielberg,Patricia Whitcher,
Music: John Williams
Plot:

Victor Novarski reaches JFK airport from a politically unstable country. Due to collapse of his government, his papers are no longer valid in the airport, and hence he is forced to stay in the airport till the war cools down. He makes the airport his home and develops a friendship with the people who work there until he can leave.

Written by Keith Francis

Victor Navorksi (played by Tom Hanks), a man from the Eastern European nation of Krakozhia, flies into JFK airport. At Customs he is forbidden entry to the USA – Krakozhia has been taken over in a coup and the US does not currently recognise the new regime, or nation. In addition, the borders of Krakozhia are now closed. This leaves Victor in limbo – he cannot enter the US or go back to Krakozhia. While waiting for the diplomatic situation to sort itself out he is forced to live in the International Transit section of JFK, living off his own resourcefulness. He also makes some new friends along the way.

Written by grantss

Viktor Navorski, a man from an Eastern European country arrives in New York. However after he left his country war broke out. Suddenly Navorski is a man without a country – or one that the U.S. cannot recognize, thus he is denied entrance to the U.S. However, he also can’t be deported so he is told by the Security Manager that he has to remain in the airport until his status can be fixed. And also Navorski doesn’t speak English very well, so he cannot talk to or understand anyone. But he somehow adapts and sets up residence in the airport, which makes the man who placed him there unhappy, as it seems he is in line for a promotion but Navroski’s presence might complicate that. So he tries to get Navorski to leave but Navorski remains where he is. Navorski makes friends with some of the people who work in the airport and is attracted to a flight attendant he runs into whenever she comes in.

Written by [email protected]

An Eastern European visitor becomes a resident of a New York airport terminal when a war breaks out and erases his country from the map, voiding his passport. He makes friends with the airport staff and falls in love with a flight attendant.

Written by BGW Claw

Former Krakozhian Viktor Navorski is almost in New York City for the first time in his life. “Former” and “almost”?: while Viktor is flying to JFK Airport, Krakozhia has been overthrown as a country with no nation recognizing the new regime, therefore all government papers such as passports, visas and currency issued by Krakozhia are also not recognized internationally. With only these papers in hand when Viktor arrives at JFK, he is not allowed entry into the United States. All air service in and out of Krakozhia has been suspended and thus Viktor cannot even be sent back until Krakozhia’s situation is resolved. Frank Dixon, Director of Customs and Border Protection at JFK, allows Viktor to stay in the international lounge until the problem is resolved. Dixon gives Viktor enough meal vouchers to last for a day or two, with Dixon expecting Viktor to secretly escape the lounge into the outside world. Viktor, however, wants to be as proper as possible and decides to stay in the lounge. Viktor poses a problem for Dixon, as Viktor may be the black mark in his promotion to head of the department. Their relationship becomes an antagonistic one, where Dixon will now do whatever he can to prevent Viktor from ever entering the country even if he ever did learn the heartbreaking reason for Viktor’s visit. As Viktor stays in the lounge, he only has limited resources on which to live and a limited understanding of the English language. Viktor’s encounters with lounge employees is also initially antagonistic, but they all learn to live in harmony and friendship as Viktor’s stay increases. The one person Viktor would like to meet and know is United Airlines flight attendant Amelia Warren, who is in transit through JFK every few weeks and who seems to be dealing with her own personal demons.

Written by Huggo

An eastern immigrant finds himself stranded in JFK airport, and must take up temporary residence there.

Written by MonkeyKingma
Cast:
Tom Hanks as Viktor Navorski
Catherine Zeta-Jones as Amelia Warren
Stanley Tucci as Frank Dixon
Chi McBride as Mulroy
Diego Luna as Enrique Cruz
Barry Shabaka Henley as Thurman
Kumar Pallana as Gupta Rajan
Zoe Saldana as Dolores Torres
Eddie Jones as Salchak
Jude Ciccolella as Karl Iverson

Details

Name: The Terminal 2004 720p Esub BlyRay Dual Audio English Hindi GOPISAHI
Description:

http://s21.postimg.org/m7tc0i4if/95811_front.jpg
Format                         : Matroska
Format version                 : Version 4 / Version 2
File size                      : 715 MiB
Duration                       : 2 h 8 min
Overall bit rate               : 776 kb/s
Movie name                     : The Terminal 2004 GOPISAHI

Video
Format                         : AVC
Codec ID                       : V_MPEG4/ISO/AVC
Duration                       : 2 h 8 min
Bit rate                       : 600 kb/s
Width                          : 1 280 pixels
Height                         : 688 pixels
Display aspect ratio           : 1.85:1
Frame rate mode                : Constant
Frame rate                     : 23.976 (24000/1001) FPS
Stream size                    : 552 MiB (77%)
Writing library                : x264 core 155 r2893 b00bcaf

Audio #1
Format                         : AAC
Duration                       : 2 h 8 min
Bit rate                       : 85.0 kb/s
Channel(s)                     : 6 channels
Channel positions              : Front: L C R, Side: L R, LFE
Sampling rate                  : 44.1 kHz
Frame rate                     : 43.066 FPS (1024 SPF)
Compression mode               : Lossy
Stream size                    : 78.3 MiB (11%)
Language                       : English

Audio #2
Format                         : AAC
Duration                       : 2 h 6 min
Bit rate                       : 89.8 kb/s
Channel(s)                     : 6 channels
Channel positions              : Front: L C R, Side: L R, LFE
Sampling rate                  : 44.1 kHz
Frame rate                     : 43.066 FPS (1024 SPF)
Stream size                    : 81.3 MiB (11%)
Language                       : Hindi

Text
Language                       : English


Category: Movies > Hollywood Dub
Lang: Hindi
Total Size: 714.55 MB
:download:

|| Download This Movie Via Single Resumable Links Size: 715 MB ||

Direct-1 Google Drive | Direct-2 | Direct-3 |

Watch Online Click Here