Tumhari Sulu (2017) Hindi 720p DvDRip x264 AC3 5.1 ESubs – Mafiaking – M2Tv

Poster

iMDB

Imdb Picture Title: Tumhari Sulu
Year: 2017
Runtime: 150 minutes
Votes: 43
Rating: 7.9/10
Language: Hindi
Country: India
All Genres: Comedy, Drama
Plot Outline: Vidya Balan (Sulochana a.k.a. Sulu) essays the role of a beautiful, enthusiastic and happy-go-lucky Mumbai housewife whose routine life changes when she unexpectedly lands herself with the …
Director: Suresh Triveni
Writing By: Suresh Triveni,
Produced By: Vicky Bhatia,Hanif Chunawala,Deepika Gandhi,Tanuj Garg,Akshiti Goleria,Atul Kasbekar,Bhushan Kumar,Krishan Kumar,Shanti Sivaram Maini,
Cast:
Vidya Balan as Sulochana / Sulu
Neha Dhupia as Maria
Manav Kaul as Ashok
Vijay Maurya as Pankaj
Santanu Ghatak as Sanjay / Music Composer
Trupti Khamkar as Lady Driver
Malishka Mendonsa as RJ Albeli Anjali
Sindhu Shekharan as Aradhana
Uday Lagoo as Sulu’s Father
Abhishek Sharma as Pranav
Trailers:
Official ‘Tumhari Sulu’ Trailer
Tumhari Sulu Official Teaser

Details

Name: Tumhari Sulu (2017) Hindi 720p DvDRip x264 AC3 Mafiaking M2Tv
Description:

Tumhari Sulu (2017) Hindi 720p DvDRip x264 AC3 Mafiaking M2Tv

Tumhari-_Sulu-2017-_By--_Sworld4ufree.Blogspot.Com
 
General

Complete name : Tumhari Sulu (2017) 720p – DVD-Rip – Hindi – x264 – AC3 5.1 – ESubs – Mafiaking – M2Tv.mkv
Format : Matroska
File size : 1.17 GiB
Duration : 2 h 25 min
Overall bit rate : 1 151 kb/s

Video
ID : 1
Format : AVC
Codec ID : V_MPEG4/ISO/AVC
Duration : 2 h 25 min
Bit rate : 925 kb/s
Width : 1 280 pixels
Height : 696 pixels
Display aspect ratio : 1.85:1
Frame rate mode : Constant
Frame rate : 23.976 (24000/1001) FPS
Stream size : 964 MiB (80%)
Title : Mafiaking
Language : Hindi
Default : Yes
Forced : No

Audio
ID : 2
Format : AC-3
Duration : 2 h 25 min
Bit rate mode : Constant
Bit rate : 224 kb/s
Channel(s) : 6 channels
Stream size : 233 MiB (19%)
Title : Mafiaking
Language : Hindi
Default : Yes
Forced : No

udHyM.th.png udbrr.th.png udWWh.th.png udNuj.th.png udnDo.th.png udp5H.th.png ud4BV.th.png udRcK.th.png udS3s.th.png ud5qz.th.png ud17c.th.png udFW3.th.png

Category: Movies > Bollywood
Lang: Hindi
Total Size: 1.18 GB
Sample
:download:

|| Download This Movie Via Single Resumable Links Size: 1.17 GB ||

Direct-1 Google Drive | Direct-2 | Direct-3 |

Watch Online Click Here