Zaban Sambhal Ke (2018) Complete S01 720p WEB-DL H264 AAC DD2.0 ~TeamCrazy

Poster

iMDB

Title: Zaban Sambhal Ke
Year: 2018
Language: Hindi
Director: Rajiv Mehra
Writing By: Raj Vasant,
Cast:
Shoma Anand as Miss Diwan 3 episodes, 2018
Nyra Banerjee as Bela 3 episodes, 2018
Pippa Hughes as Jennifer 3 episodes, 2018
Hemant Koumar as Balwant 3 episodes, 2018
Ashwin Mushran as Sheikh Al Fukar 3 episodes, 2018
Sumeet Raghvan as Mohan Bharti 3 episodes, 2018
Rupali Bhonsle “>Rupali Bhonsle as Paro 2 episodes, 2018
Meenakshi Chand “>Meenakshi Chand as Lin Dolo 2 episodes, 2018
Bakhtiyaar Irani as Perzin Dastur 2 episodes, 2018
Rupali Bhosale as Paro 1 episode, 2018
Trailers:
Zaban Sambhal Ke | All episodes streaming now on ALTBalaji
Zabaan Sambhal Ke | Official Trailer

Details

Name: Zaban Sambhal Ke (2018) Complete S01 720p WEB-DL H264 AAC DD2.0 ~TeamCrazy
Description:

Zaban Sambhal Ke (2018) Complete S01 720p WEB-DL H264 AAC DD2.0 ~TeamCrazy

Source :- TeamTelly
General
Format                                   : MPEG-4
Format profile                           : Base Media
Codec ID                                 : isom (isom/iso2/avc1/mp41)
File size                                : 229 MiB
Duration                                 : 25 min 7 s
Overall bit rate                         : 1 273 kb/s
Writing application                      : Lavf58.12.100

Video
ID                                       : 1
Format                                   : AVC
Format/Info                              : Advanced Video Codec
Format profile                           : [email protected]
Format settings                          : CABAC / 4 Ref Frames
Format settings, CABAC                   : Yes
Format settings, ReFrames                : 4 frames
Codec ID                                 : avc1
Codec ID/Info                            : Advanced Video Coding
Duration                                 : 25 min 7 s
Bit rate                                 : 1 220 kb/s
Width                                    : 1 266 pixels
Height                                   : 720 pixels
Display aspect ratio                     : 16:9
Frame rate mode                          : Constant
Frame rate                               : 25.000 FPS
Color space                              : YUV
Chroma subsampling                       : 4:2:0
Bit depth                                : 8 bits
Scan type                                : Progressive
Bits/(Pixel*Frame)                       : 0.054
Stream size                              : 217 MiB (95%)
Writing library                          : x264 core 148 r2643 5c65704

Audio
ID                                       : 2
Format                                   : AAC
Format/Info                              : Advanced Audio Codec
Format profile                           : LC
Codec ID                                 : mp4a-40-2
Duration                                 : 25 min 7 s
Duration_LastFrame                       : -15 ms
Bit rate mode                            : Constant
Bit rate                                 : 56.0 kb/s
Channel(s)                               : 2 channels
Channel(s)_Original                      : 1 channel
Channel positions                        : Front: C
Sampling rate                            : 44.1 kHz
Frame rate                               : 43.066 FPS (1024 SPF)
Compression mode                         : Lossy
Stream size                              : 10.1 MiB (4%)
Default                                  : Yes
Alternate group                          : 1

ebkic.th.png ebo3z.th.png ebgAs.th.png ebTrE.th.png eb8v3.th.png ebf0M.th.png ebhWv.th.png eb0ud.th.png ebqD9.th.png ebeiJ.th.png ebG5t.th.png ebYB8.th.png ebm05.th.png ebi3D.th.png ebL7g.th.png
Category: TV > Indian
Lang: Hindi
Total Size: 653.88 MB

|| Download This Tv Show Via Single Resumable Links Size: 654 MB ||

Direct-1 Google Drive | Direct-2 | Direct-3 |

Watch Online Click Here